<?xml version="1.0" standalone="no"?>
<!DOCTYPE svg PUBLIC "-//W3C//DTD SVG 1.1//EN" "http://www.w3.org/Graphics/SVG/1.1/DTD/svg11.dtd" >
<svg>
<metadata>
Created by FontForge 20110222 at Fri Aug 29 03:56:48 2014
 By Orthosie Webhosting
Copyright (c) 2013 Monotype GmbH.
</metadata>
<defs>
<font id="MetroNovaProBoldItalic" horiz-adv-x="622" >
  <font-face 
    font-family="MetroNovaProBoldItalic"
    font-weight="700"
    font-style="italic"
    font-stretch="normal"
    units-per-em="1000"
    panose-1="2 12 8 4 2 2 3 9 2 3"
    ascent="770"
    descent="-230"
    x-height="494"
    cap-height="772"
    bbox="-289 -237 1308 1015"
    underline-thickness="50"
    underline-position="-50"
    slope="-12"
    unicode-range="U+000D-FB02"
  />
<missing-glyph horiz-adv-x="587" 
d="M217 115q28 0 46 -17.5t18 -45.5t-17.5 -46.5t-45.5 -18.5q-30 0 -48 18t-18 47q0 28 18 45.5t47 17.5zM264 184l-100 -20v170q85 4 132 33t47 79q0 39 -28.5 62t-79.5 23q-50 0 -87 -15l17 105q37 10 89 10q91 0 147.5 -46.5t56.5 -129.5q0 -74 -52.5 -125t-141.5 -67
v-79zM0 -128v870h587v-870h-587zM72 671v-728h443v728h-443z" />
    <glyph glyph-name=".notdef" horiz-adv-x="587" 
d="M217 115q28 0 46 -17.5t18 -45.5t-17.5 -46.5t-45.5 -18.5q-30 0 -48 18t-18 47q0 28 18 45.5t47 17.5zM264 184l-100 -20v170q85 4 132 33t47 79q0 39 -28.5 62t-79.5 23q-50 0 -87 -15l17 105q37 10 89 10q91 0 147.5 -46.5t56.5 -129.5q0 -74 -52.5 -125t-141.5 -67
v-79zM0 -128v870h587v-870h-587zM72 671v-728h443v728h-443z" />
    <glyph glyph-name=".null" horiz-adv-x="0" 
 />
    <glyph glyph-name="nonmarkingreturn" horiz-adv-x="333" 
 />
    <glyph glyph-name="CR" unicode="&#xd;" horiz-adv-x="220" 
 />
    <glyph glyph-name="space" unicode=" " horiz-adv-x="220" 
 />
    <glyph glyph-name="exclam" unicode="!" horiz-adv-x="315" 
d="M123 140q33 0 51.5 -19t18.5 -52q0 -35 -25 -60t-61 -25q-33 0 -52 19t-19 50q0 37 25.5 62t61.5 25zM184 760l175 22q-78 -308 -199 -569l-28 5q-2 111 12.5 261.5t39.5 280.5z" />
    <glyph glyph-name="quotedbl" unicode="&#x22;" horiz-adv-x="411" 
d="M394 511l-74 -12q0 123 27 255h125q-24 -113 -78 -243zM204 511l-74 -12q0 123 27 255h125q-24 -113 -78 -243z" />
    <glyph glyph-name="numbersign" unicode="#" horiz-adv-x="614" 
d="M87 466l14 94h81l50 192h95l-51 -192h135l50 192h95l-51 -192h81l-14 -94h-91l-45 -172h91l-14 -95h-102l-52 -199h-94l52 199h-135l-52 -199h-94l52 199h-60l13 95h71l45 172h-70zM252 466l-45 -172h134l45 172h-134z" />
    <glyph glyph-name="dollar" unicode="$" 
d="M471 839l-16 -72q84 -9 152 -41l-30 -138q-67 54 -145 67l-49 -231q89 -46 128 -96t39 -116q0 -101 -73 -162.5t-189 -70.5l-27 -129h-75l27 129q-116 9 -183 60l23 158q75 -85 186 -99l50 236q-84 44 -120.5 93t-36.5 112q0 95 71.5 160.5t177.5 70.5l15 69h75zM426 200
q0 56 -70 99l-42 -201q52 7 82 34t30 68zM254 550q0 -52 61 -91l42 198q-49 -8 -76 -37t-27 -70z" />
    <glyph glyph-name="percent" unicode="%" horiz-adv-x="797" 
d="M784 752l-618 -752h-91l617 752h92zM239 375q-61 0 -95 33.5t-34 93.5q0 86 66.5 160.5t146.5 74.5q61 0 95 -33.5t34 -93.5q0 -86 -66.5 -160.5t-146.5 -74.5zM320 657q-48 0 -87 -48.5t-39 -103.5q0 -50 47 -50q49 0 88 48.5t39 103.5q0 50 -48 50zM530 15
q-60 0 -94.5 33.5t-34.5 93.5q0 86 66.5 160.5t146.5 74.5q61 0 95 -33.5t34 -93.5q0 -86 -66.5 -160.5t-146.5 -74.5zM612 297q-49 0 -88 -48.5t-39 -103.5q0 -50 48 -50t87.5 48.5t39.5 103.5q0 50 -48 50z" />
    <glyph glyph-name="ampersand" unicode="&#x26;" horiz-adv-x="826" 
d="M419 300l46 167q207 12 393 63l-39 -159q-88 -4 -132 -9q2 -22 2 -33q0 -145 -106 -245.5t-260 -100.5q-129 0 -203 65.5t-74 167.5q0 85 53.5 149t148.5 98q-44 43 -44 105q0 93 80.5 152t195.5 59q82 0 156 -22l-42 -148q-48 25 -118 25q-66 0 -108 -32.5t-42 -83.5
q0 -41 42 -84l-1 -3q-171 -62 -171 -192q0 -53 38.5 -86t107.5 -33q98 0 160 57.5t62 148.5v18q-85 -17 -145 -44z" />
    <glyph glyph-name="quotesingle" unicode="'" horiz-adv-x="222" 
d="M204 511l-74 -12q0 123 27 255h125q-24 -113 -78 -243z" />
    <glyph glyph-name="parenleft" unicode="(" horiz-adv-x="364" 
d="M68 214q0 172 62 314.5t202 273.5h101q-146 -151 -201 -285.5t-55 -319.5q0 -167 64 -301h-83q-90 126 -90 318z" />
    <glyph glyph-name="parenright" unicode=")" horiz-adv-x="364" 
d="M341 484q0 -188 -66 -326.5t-199 -261.5h-102q143 146 200 280t57 325q0 170 -64 301h84q90 -128 90 -318z" />
    <glyph glyph-name="asterisk" unicode="*" horiz-adv-x="458" 
d="M297 760q47 0 47 -31q0 -39 -38 -122h-18q-38 83 -38 122q0 31 47 31zM297 369q-47 0 -47 31q0 39 38 122h18q38 -83 38 -122q0 -31 -47 -31zM119 629q0 17 15 39.5t32 22.5q7 0 14 -4q33 -19 86 -94l-9 -16q-90 8 -124 28q-14 8 -14 24zM166 438q-17 0 -32 22.5
t-15 38.5q0 17 14 25q34 20 124 28l9 -16q-53 -75 -86 -94q-7 -4 -14 -4zM475 500q0 -18 -15 -40t-32 -22q-7 0 -14 4q-33 19 -86 94l9 16q89 -8 125 -28q13 -8 13 -24zM428 691q17 0 32 -22t15 -40q0 -16 -13 -24q-36 -20 -125 -28l-9 16q53 75 86 94q7 4 14 4z" />
    <glyph glyph-name="plus" unicode="+" horiz-adv-x="598" 
d="M242 493h113v-176h183v-118h-183v-176h-113v176h-182v118h182v176z" />
    <glyph glyph-name="comma" unicode="," horiz-adv-x="267" 
d="M137 147q30 -30 30 -91q0 -75 -52 -124.5t-135 -73.5l-7 24q36 15 58 43.5t22 64.5q0 53 -43 84z" />
    <glyph glyph-name="hyphen" unicode="-" horiz-adv-x="324" 
d="M307 327l-25 -118h-254l25 118h254z" />
    <glyph glyph-name="period" unicode="." horiz-adv-x="262" 
d="M101 140q33 0 51.5 -19t18.5 -52q0 -35 -25 -60t-62 -25q-33 0 -51.5 19t-18.5 50q0 37 25.5 62t61.5 25z" />
    <glyph glyph-name="slash" unicode="/" horiz-adv-x="464" 
d="M559 780l-472 -810h-127l472 810h127z" />
    <glyph glyph-name="zero" unicode="0" 
d="M268 -16q-109 0 -166 73.5t-57 206.5q0 228 104.5 366t258.5 138q112 0 169.5 -68.5t57.5 -201.5q0 -226 -105 -370t-262 -144zM281 107q91 0 150.5 103.5t59.5 281.5q0 77 -24 118.5t-70 41.5q-92 0 -150 -113t-58 -270q0 -77 24 -119.5t68 -42.5z" />
    <glyph glyph-name="one" unicode="1" 
d="M345 0h-144l134 627l-134 -16l55 141h249z" />
    <glyph glyph-name="two" unicode="2" 
d="M207 726q82 39 183 39q97 0 152.5 -53.5t55.5 -139.5q0 -64 -33.5 -122.5t-116.5 -136.5q-99 -94 -220 -187h314l-41 -126h-510l12 60q202 163 348 314q54 55 76.5 93t22.5 77t-25 62t-72 23q-103 0 -213 -67z" />
    <glyph glyph-name="three" unicode="3" 
d="M583 594q0 -134 -151 -211q91 -43 91 -142q0 -114 -86.5 -184t-234.5 -70q-96 0 -170 33l21 134q58 -35 149 -35q83 0 131 33.5t48 89.5q0 40 -32 63.5t-90 23.5q-69 0 -134 -13l61 135q33 -3 80 -3q81 0 127 32.5t46 89.5q0 32 -24.5 52t-68.5 20q-90 0 -165 -45l58 150
q57 18 128 18q103 0 159.5 -46t56.5 -125z" />
    <glyph glyph-name="four" unicode="4" 
d="M309 0l47 222h-343l22 107l413 423h156l-88 -411h96l-26 -119h-95l-47 -222h-135zM162 341h220l61 286z" />
    <glyph glyph-name="five" unicode="5" 
d="M650 752l-44 -124h-284l-48 -140q125 0 195 -58.5t70 -157.5q0 -144 -117.5 -231.5t-320.5 -87.5q-47 0 -92 12l38 128q35 -7 85 -7q129 0 199.5 47.5t70.5 129.5q0 51 -44.5 81.5t-134.5 30.5q-61 0 -117 -12l132 389h412zM268 471q1 1 1 3z" />
    <glyph glyph-name="six" unicode="6" 
d="M602 641q-139 -3 -236.5 -60t-148.5 -150q68 38 147 38q101 0 158.5 -56.5t57.5 -149.5q0 -117 -87 -197t-208 -80q-119 0 -180.5 66.5t-61.5 176.5q0 108 42 205.5t119 173t193.5 122t256.5 50.5zM329 369q-91 0 -156 -59q-6 -35 -6 -71q0 -58 33 -92.5t92 -34.5
q63 0 106.5 43t43.5 108q0 49 -30.5 77.5t-82.5 28.5z" />
    <glyph glyph-name="seven" unicode="7" 
d="M183 752h485q-237 -423 -376 -752h-182q194 375 354 615l-356 -11z" />
    <glyph glyph-name="eight" unicode="8" 
d="M559 218q0 -96 -85 -163.5t-201 -67.5q-108 0 -170 51t-62 136q0 153 205 219q-98 61 -98 160q0 85 77.5 152t187.5 67q102 0 157 -51.5t55 -127.5q0 -134 -175 -197q109 -71 109 -178zM420 227q0 69 -91 111q-75 -23 -113.5 -60.5t-38.5 -82.5q0 -37 28 -61.5t73 -24.5
q61 0 101.5 34t40.5 84zM285 548q0 -64 80 -100q128 47 128 132q0 33 -24 54t-65 21q-51 0 -85 -31t-34 -76z" />
    <glyph glyph-name="nine" unicode="9" 
d="M166 -28l-76 119q237 84 336 214q-44 -14 -91 -14q-110 0 -174.5 57.5t-64.5 155.5q0 106 84 186.5t200 80.5q119 0 182 -71t63 -188q0 -168 -108 -302t-351 -238zM381 381q53 0 97 18q19 57 19 112q0 61 -32.5 98t-88.5 37q-60 0 -102.5 -42t-42.5 -103q0 -53 39 -86.5
t111 -33.5z" />
    <glyph glyph-name="colon" unicode=":" horiz-adv-x="262" 
d="M179 507q33 0 51.5 -19t18.5 -52q0 -35 -25 -60t-62 -25q-33 0 -51.5 19t-18.5 50q0 37 25.5 62t61.5 25zM101 140q33 0 51.5 -19t18.5 -52q0 -35 -25 -60t-62 -25q-33 0 -51.5 19t-18.5 50q0 37 25.5 62t61.5 25z" />
    <glyph glyph-name="semicolon" unicode=";" horiz-adv-x="262" 
d="M137 147q30 -30 30 -91q0 -75 -52 -124.5t-135 -73.5l-7 24q36 15 58 43.5t22 64.5q0 53 -43 84zM179 507q33 0 51.5 -19t18.5 -52q0 -35 -25 -60t-62 -25q-33 0 -51.5 19t-18.5 50q0 37 25.5 62t61.5 25z" />
    <glyph glyph-name="less" unicode="&#x3c;" horiz-adv-x="598" 
d="M534 395l-364 -138l364 -137v-104l-470 184v115l470 184v-104z" />
    <glyph glyph-name="equal" unicode="=" horiz-adv-x="598" 
d="M553 413v-103h-508v103h508zM553 207v-103h-508v103h508z" />
    <glyph glyph-name="greater" unicode="&#x3e;" horiz-adv-x="598" 
d="M64 16v104l364 137l-364 138v104l470 -184v-115z" />
    <glyph glyph-name="question" unicode="?" horiz-adv-x="483" 
d="M116 140q33 0 51.5 -19t18.5 -52q0 -35 -25 -60t-62 -25q-33 0 -51.5 19t-18.5 50q0 37 25.5 62t61.5 25zM200 231l-125 -25l45 209q118 5 187.5 48.5t69.5 114.5q0 42 -30.5 66t-87.5 24q-58 0 -109 -18l47 126q40 12 87 12q107 0 170.5 -51t63.5 -143
q0 -103 -82.5 -174.5t-214.5 -93.5z" />
    <glyph glyph-name="at" unicode="@" horiz-adv-x="925" 
d="M683 457l-57 -269q-6 -27 -6 -50q0 -34 37 -34q57 0 94.5 49t37.5 134q0 130 -86.5 211.5t-222.5 81.5q-152 0 -249 -102t-97 -251q0 -154 95 -244t240 -90q133 0 222 68l39 -83q-102 -72 -262 -72q-188 0 -307.5 114t-119.5 307q0 89 32 169.5t88.5 140.5t139.5 95
t179 35q173 0 289 -104.5t116 -273.5q0 -131 -73 -205.5t-179 -74.5q-103 0 -119 82q-54 -74 -146 -74q-66 0 -103.5 44.5t-37.5 123.5q0 124 69 209t162 85q41 0 72 -19.5t43 -46.5l9 44h101zM557 339q-9 23 -31.5 37.5t-52.5 14.5q-57 0 -96.5 -54.5t-39.5 -132.5
q0 -45 20 -70.5t56 -25.5q64 0 109 66z" />
    <glyph glyph-name="A" unicode="A" horiz-adv-x="789" 
d="M-50 0l510 768l110 16l165 -784h-152l-37 201h-299l-122 -201h-175zM482 586l-172 -275h220z" />
    <glyph glyph-name="B" unicode="B" horiz-adv-x="655" 
d="M648 600q0 -56 -36.5 -105.5t-102.5 -79.5q98 -47 98 -165q0 -110 -95 -180t-241 -70h-232l164 772h216q112 0 170.5 -47.5t58.5 -124.5zM256 342l-48 -226h76q85 0 130.5 38.5t45.5 95.5q0 42 -29.5 67t-84.5 25h-90zM323 657l-44 -208h69q74 0 114.5 37.5t40.5 88.5
q0 36 -25.5 59t-74.5 23h-80z" />
    <glyph glyph-name="C" unicode="C" horiz-adv-x="744" 
d="M784 716l-48 -164h-3q-64 94 -202 94q-129 0 -220 -92.5t-91 -219.5q0 -93 54 -150t148 -57q150 0 270 129h3l-58 -199q-106 -70 -241 -70q-151 0 -238 94t-87 253q0 88 38 171t101 144.5t150 98.5t181 37q155 0 243 -69z" />
    <glyph glyph-name="D" unicode="D" horiz-adv-x="776" 
d="M257 0h-218l164 772h202q174 0 268.5 -89t94.5 -238q0 -201 -135 -323t-376 -122zM319 640l-107 -507h71q158 0 246 85t88 225q0 87 -56.5 142t-161.5 55h-80z" />
    <glyph glyph-name="E" unicode="E" horiz-adv-x="591" 
d="M321 645l-40 -185h256l-26 -119h-255l-46 -214h301l-26 -127h-446l164 772h443l-26 -127h-299z" />
    <glyph glyph-name="F" unicode="F" horiz-adv-x="568" 
d="M649 772l-27 -127h-301l-42 -194h275l-26 -127h-276l-69 -324h-144l164 772h446z" />
    <glyph glyph-name="G" unicode="G" horiz-adv-x="772" 
d="M739 366l-63 -291q-131 -88 -275 -88q-154 0 -243.5 90.5t-89.5 244.5q0 118 58.5 223.5t168.5 172.5t245 67q146 0 245 -65l-49 -159h-2q-29 42 -81 66.5t-119 24.5q-137 0 -226 -95t-89 -235q0 -95 52.5 -150t146.5 -55q74 0 125 38l45 211h151z" />
    <glyph glyph-name="H" unicode="H" horiz-adv-x="807" 
d="M183 0h-144l164 772h144l-64 -305h336l65 305h144l-164 -772h-144l71 335h-337z" />
    <glyph glyph-name="I" unicode="I" horiz-adv-x="326" 
d="M183 0h-144l164 772h144z" />
    <glyph glyph-name="J" unicode="J" horiz-adv-x="326" 
d="M203 772h145l-137 -642q-27 -128 -61.5 -202t-88.5 -121l-201 -44l-3 11q86 57 132.5 133t77.5 226z" />
    <glyph glyph-name="K" unicode="K" horiz-adv-x="756" 
d="M183 0h-144l164 772h144l-75 -354l378 354h192l-427 -387l290 -385h-180l-264 369z" />
    <glyph glyph-name="L" unicode="L" horiz-adv-x="608" 
d="M39 0l164 772h144l-135 -639h356l-28 -133h-501z" />
    <glyph glyph-name="M" unicode="M" horiz-adv-x="1070" 
d="M39 0l164 772h145l169 -561l410 561h164l-164 -772h-140l110 513l-375 -513h-80l-154 511l-109 -511h-140z" />
    <glyph glyph-name="N" unicode="N" horiz-adv-x="886" 
d="M767 772h141l-164 -772h-117l-331 546l-116 -546h-141l164 772h117l331 -545z" />
    <glyph glyph-name="O" unicode="O" horiz-adv-x="854" 
d="M402 118q122 0 207 101.5t85 224.5q0 94 -49 152t-133 58q-119 0 -206.5 -92.5t-87.5 -221.5q0 -98 50 -160t134 -62zM842 456q0 -120 -57 -227.5t-161.5 -175.5t-229.5 -68q-149 0 -237 94.5t-88 246.5q0 126 61.5 232.5t165 167.5t223.5 61q149 0 236 -90.5t87 -240.5z
" />
    <glyph glyph-name="P" unicode="P" horiz-adv-x="626" 
d="M183 0h-144l164 772h193q125 0 193.5 -56t68.5 -156q0 -138 -92 -215t-262 -77h-63zM321 648l-54 -256h55q94 0 144 41t50 115q0 48 -34 74t-99 26h-62z" />
    <glyph glyph-name="Q" unicode="Q" horiz-adv-x="860" 
d="M397 1q-54 0 -105 17v-1q16 -6 55.5 -24t76.5 -33t71 -23q76 -19 156 -20l-68 -133q-84 5 -164 36q-54 22 -133 64t-104 53q-52 23 -89 32l85 118q-107 99 -107 248q0 122 61.5 226t166 165t226.5 61q150 0 238.5 -93.5t88.5 -243.5q0 -123 -62 -227t-166.5 -163
t-226.5 -59zM698 444q0 92 -50 149.5t-135 57.5q-118 0 -204 -92.5t-86 -223.5q0 -93 50 -153t132 -60q119 0 206 95t87 227z" />
    <glyph glyph-name="R" unicode="R" horiz-adv-x="691" 
d="M38 0l164 772h207q123 0 190 -53t67 -149q0 -89 -59.5 -153.5t-162.5 -94.5l195 -322h-173l-170 301h-50l-64 -301h-144zM320 648l-53 -251h13q115 0 174.5 41t59.5 114q0 96 -130 96h-64z" />
    <glyph glyph-name="S" unicode="S" horiz-adv-x="558" 
d="M50 200q85 -85 182 -85q60 0 94.5 29.5t34.5 78.5q0 35 -25.5 67t-88.5 74q-67 45 -94.5 89.5t-27.5 105.5q0 99 73.5 163.5t181.5 64.5q105 0 191 -43l-32 -150q-88 66 -158 66q-49 0 -78.5 -26.5t-29.5 -66.5q0 -30 23 -56.5t91 -71.5t97.5 -93.5t29.5 -115.5
q0 -110 -85 -178t-213 -68q-122 0 -191 49l22 167h3z" />
    <glyph glyph-name="T" unicode="T" horiz-adv-x="689" 
d="M365 0h-145l136 639h-255l29 133h653l-28 -133h-255z" />
    <glyph glyph-name="U" unicode="U" horiz-adv-x="777" 
d="M196 772h145l-101 -471q-6 -34 -6 -63q0 -55 33.5 -82.5t87.5 -27.5q73 0 130 44t75 129l100 471h145l-102 -479q-32 -154 -127 -230.5t-226 -76.5q-121 0 -193 59.5t-72 177.5q0 21 8 63z" />
    <glyph glyph-name="V" unicode="V" horiz-adv-x="790" 
d="M114 772h157l98 -570l351 570h179l-505 -772h-121z" />
    <glyph glyph-name="W" unicode="W" horiz-adv-x="1198" 
d="M707 0l-76 396l-252 -396h-110l-155 772h154l95 -571l234 362l-44 209h154l90 -553l343 553h168l-495 -772h-106z" />
    <glyph glyph-name="X" unicode="X" horiz-adv-x="787" 
d="M-43 0l382 410l-207 362h169l139 -260l227 260h196l-358 -375l222 -397h-169l-154 297l-265 -297h-182z" />
    <glyph glyph-name="Y" unicode="Y" horiz-adv-x="724" 
d="M369 0h-145l78 364l-192 408h161l120 -281l254 281h193l-391 -407z" />
    <glyph glyph-name="Z" unicode="Z" horiz-adv-x="727" 
d="M617 0h-677l585 631h-375l42 141h640l-595 -632h435z" />
    <glyph glyph-name="bracketleft" unicode="[" horiz-adv-x="364" 
d="M1 -104l193 906h251l-16 -70h-142l-162 -767h142l-15 -69h-251z" />
    <glyph glyph-name="backslash" unicode="\" horiz-adv-x="487" 
d="M290 -30l-146 810h110l145 -810h-109z" />
    <glyph glyph-name="bracketright" unicode="]" horiz-adv-x="364" 
d="M408 802l-193 -906h-251l15 69h142l163 767h-142l15 70h251z" />
    <glyph glyph-name="asciicircum" unicode="^" horiz-adv-x="476" 
d="M343 410l-106 220l-106 -220h-113l153 318h134l153 -318h-115z" />
    <glyph glyph-name="underscore" unicode="_" horiz-adv-x="500" 
d="M433 -71l-17 -80h-500l17 80h500z" />
    <glyph glyph-name="grave" unicode="`" horiz-adv-x="226" 
d="M230 576l-117 179h134l42 -179h-59z" />
    <glyph glyph-name="a" unicode="a" horiz-adv-x="519" 
d="M109 342l27 129q69 38 160 38q173 0 173 -155q0 -27 -7 -58l-60 -284l-140 -27l12 54q-79 -52 -157 -52q-55 0 -86 29t-31 81q0 121 165 173q72 24 165 33l2 13q3 12 3 24q0 57 -70 57q-91 0 -156 -55zM295 140l20 94q-59 -7 -101 -23q-68 -26 -68 -79q0 -42 48 -42
q57 0 101 50z" />
    <glyph glyph-name="b" unicode="b" horiz-adv-x="619" 
d="M246 -17q-80 0 -120 33l-105 -29l163 765l143 28l-64 -299q53 30 122 30q90 0 146 -58t56 -157q0 -135 -96 -224t-245 -89zM334 402q-55 0 -95 -32l-56 -264q23 -20 65 -20q87 0 141.5 54.5t54.5 144.5q0 54 -29 85.5t-81 31.5z" />
    <glyph glyph-name="c" unicode="c" horiz-adv-x="503" 
d="M454 173l-52 -155q-60 -35 -145 -35q-105 0 -163.5 58t-58.5 159q0 131 89.5 221t234.5 90q94 0 148 -40l-41 -127q-42 45 -111 45q-79 0 -129 -50.5t-50 -127.5q0 -48 30.5 -77t87.5 -29q88 0 157 68h3z" />
    <glyph glyph-name="d" unicode="d" horiz-adv-x="621" 
d="M363 -16l13 47q-62 -48 -142 -48q-96 0 -148.5 60.5t-52.5 155.5q0 128 98 220t228 92q59 0 101 -23l56 265l143 27l-163 -768zM281 94q59 0 103 36l52 248q-29 23 -79 23q-77 0 -130 -56t-53 -141q0 -52 28 -81t79 -29z" />
    <glyph glyph-name="e" unicode="e" horiz-adv-x="520" 
d="M312 219q-66 -17 -161 -30q5 -41 33 -65.5t80 -24.5q100 0 184 78h3l-42 -143q-68 -51 -164 -51q-107 0 -161.5 59t-54.5 149q0 76 44.5 150t120.5 122t159 48q73 0 112.5 -35t39.5 -93q0 -118 -193 -164zM317 411q-49 0 -98 -48t-64 -112q69 14 118 30q94 32 94 87
q0 43 -50 43z" />
    <glyph glyph-name="f" unicode="f" horiz-adv-x="379" 
d="M421 494l-25 -113h-129l-81 -381h-137l81 381h-85l24 113h85l14 64q33 155 148 197l172 25l-13 -59q-82 -17 -121 -60.5t-55 -128.5l-8 -38h130z" />
    <glyph glyph-name="g" unicode="g" horiz-adv-x="535" 
d="M292 509q73 0 124 -31q37 40 73 57.5t84 17.5l-24 -112q-39 0 -78 -20q16 -31 16 -68q0 -139 -201 -186q-19 -5 -53.5 -11.5t-44.5 -8.5q-34 -9 -34 -22q0 -14 41 -21q16 -3 67.5 -10t68.5 -10q110 -21 110 -114q0 -86 -88.5 -146.5t-205.5 -60.5q-85 0 -132.5 39.5
t-47.5 97.5q0 79 92 132q-53 26 -53 69q0 57 133 104q-35 17 -54.5 47t-19.5 66q0 76 68 133.5t159 57.5zM262 -14q-15 4 -60.5 11.5t-72.5 13.5q-56 -26 -56 -80q0 -27 24 -44t68 -17q57 0 97.5 23.5t40.5 54.5q0 29 -41 38zM183 314q0 -44 43 -67q8 -4 16 -4q9 0 21 4
q92 29 92 95q0 28 -18.5 47t-51.5 19q-41 0 -71.5 -27t-30.5 -67z" />
    <glyph glyph-name="h" unicode="h" horiz-adv-x="607" 
d="M24 0l160 753l143 27l-74 -348q87 76 174 76q64 0 99 -35.5t35 -99.5q0 -24 -5 -52l-69 -321h-137l62 292q4 17 4 33q0 58 -61 58q-52 0 -92 -38q-37 -32 -47 -83l-55 -262h-137z" />
    <glyph glyph-name="i" unicode="i" horiz-adv-x="288" 
d="M126 481l143 28l-108 -509h-137zM244 751q33 0 52 -19.5t19 -51.5q0 -35 -25.5 -60t-61.5 -25q-33 0 -52 19t-19 50q0 37 25.5 62t61.5 25z" />
    <glyph glyph-name="j" unicode="j" horiz-adv-x="288" 
d="M126 481l143 28l-110 -515q-30 -138 -87 -190l-188 -41l-3 15q109 60 140 209zM243 751q32 0 51 -19.5t19 -51.5q0 -35 -25 -60t-62 -25q-33 0 -51.5 19t-18.5 50q0 37 25 62t62 25z" />
    <glyph glyph-name="k" unicode="k" horiz-adv-x="588" 
d="M327 780l-106 -498l224 212h173l-266 -236l205 -258h-168l-175 249l-53 -249h-137l160 752z" />
    <glyph glyph-name="l" unicode="l" horiz-adv-x="288" 
d="M327 780l-166 -780h-137l160 752z" />
    <glyph glyph-name="m" unicode="m" horiz-adv-x="893" 
d="M636 0l63 298q4 15 4 29q0 56 -57 56q-52 0 -89 -43q-23 -26 -31 -64v1l-59 -277h-137l63 298q4 22 4 28q0 57 -57 57q-51 0 -90 -44q-23 -25 -31 -66l-58 -273h-137l105 494h137l-11 -53q57 67 141 67q100 0 133 -81q76 81 173 81q72 0 109 -37t37 -100q0 -20 -5 -45
l-70 -326h-137z" />
    <glyph glyph-name="n" unicode="n" horiz-adv-x="607" 
d="M24 0l105 494h137l-13 -62q87 76 174 76q64 0 99 -36t35 -99q0 -24 -5 -52l-69 -321h-137l62 292q4 17 4 33q0 58 -61 58q-52 0 -92 -38q-37 -32 -47 -83l-55 -262h-137z" />
    <glyph glyph-name="o" unicode="o" horiz-adv-x="606" 
d="M276 94q69 0 111.5 60t42.5 134q0 53 -25.5 83.5t-72.5 30.5q-66 0 -109.5 -51t-43.5 -132q0 -57 25 -91t72 -34zM259 -17q-102 0 -162.5 60t-60.5 164q0 134 92 219.5t221 85.5q102 0 162.5 -56.5t60.5 -154.5q0 -129 -90 -223.5t-223 -94.5z" />
    <glyph glyph-name="p" unicode="p" horiz-adv-x="613" 
d="M129 494h131q45 13 93 13q102 0 164 -59.5t62 -161.5q0 -130 -92 -216.5t-235 -86.5q-58 0 -91 16l-44 -208l-143 -28zM319 404q-47 0 -76 -19l-60 -281q24 -19 69 -19q82 0 134 56t52 142q0 56 -31.5 88.5t-87.5 32.5z" />
    <glyph glyph-name="q" unicode="q" horiz-adv-x="619" 
d="M597 494l-149 -702l-143 -29l52 247q-50 -26 -114 -26q-98 0 -153 58t-55 158q0 136 93.5 223.5t235.5 87.5q55 0 97 -17h136zM288 97q58 0 93 26l57 268q-26 17 -74 17q-86 0 -137.5 -56.5t-51.5 -141.5q0 -53 29 -83t84 -30z" />
    <glyph glyph-name="r" unicode="r" horiz-adv-x="401" 
d="M445 501l-31 -143q-27 6 -57 6q-120 0 -137 -87l-59 -277h-137l105 494h137l-14 -67q75 77 164 77q17 0 29 -3z" />
    <glyph glyph-name="s" unicode="s" horiz-adv-x="453" 
d="M7 40l33 121q26 -32 67.5 -52t84.5 -20q36 0 55 13.5t19 35.5t-25 37q-13 8 -49 23.5t-53 26.5q-70 43 -70 120q0 71 55.5 118.5t140.5 47.5q104 0 168 -47l-51 -117q-20 25 -56 41t-68 16q-63 0 -63 -46q0 -20 25 -35q12 -7 47.5 -23t50.5 -24q75 -45 75 -122
q0 -76 -58 -123.5t-153 -47.5q-113 0 -175 57z" />
    <glyph glyph-name="t" unicode="t" horiz-adv-x="391" 
d="M69 494h91l29 138l142 26l-34 -164h132l-24 -113h-133l-45 -213q-9 -44 -9 -72q0 -30 12.5 -49t41.5 -36l-3 -9l-139 -15q-52 28 -52 99q0 26 8 60l50 235h-91z" />
    <glyph glyph-name="u" unicode="u" horiz-adv-x="599" 
d="M121 494h138l-63 -294q-4 -15 -4 -30q0 -57 60 -57q63 0 107 57q16 21 24 54l58 270h136l-103 -482l-142 -27l16 77q-78 -75 -169 -75q-66 0 -99 35t-33 101q0 28 6 55z" />
    <glyph glyph-name="v" unicode="v" horiz-adv-x="540" 
d="M53 494h139l37 -349l208 349h156l-319 -494h-141z" />
    <glyph glyph-name="w" unicode="w" horiz-adv-x="835" 
d="M402 494h125l13 -349l201 349h147l-312 -494h-135l-19 287l-161 -287h-136l-72 494h133l32 -349z" />
    <glyph glyph-name="x" unicode="x" horiz-adv-x="567" 
d="M603 494l-247 -246l146 -248h-146l-87 166l-152 -166h-171l262 257l-139 237h153l75 -153l136 153h170z" />
    <glyph glyph-name="y" unicode="y" horiz-adv-x="547" 
d="M-54 -234q120 102 207 241l-100 487h140l54 -334l206 334h148l-325 -507q-96 -150 -162 -224h-169z" />
    <glyph glyph-name="z" unicode="z" horiz-adv-x="525" 
d="M423 0h-478l362 372h-231l39 122h451l-363 -371h267z" />
    <glyph glyph-name="braceleft" unicode="{" horiz-adv-x="364" 
d="M37 317l15 66q101 8 124 115l31 149q19 82 74.5 118.5t157.5 36.5l-14 -66q-49 0 -75.5 -23.5t-38.5 -78.5l-33 -159q-24 -108 -133 -129q78 -21 78 -108q0 -20 -4 -40l-28 -132q-6 -24 -6 -41q0 -33 18 -47t57 -14l-13 -66q-167 0 -167 123q0 27 5 50l28 131q4 16 4 34
q0 74 -80 81z" />
    <glyph glyph-name="bar" unicode="|" horiz-adv-x="289" 
d="M197 -110h-105v902h105v-902z" />
    <glyph glyph-name="braceright" unicode="}" horiz-adv-x="364" 
d="M371 383l-14 -66q-53 -4 -84 -35.5t-41 -79.5l-31 -149q-18 -82 -73.5 -118.5t-158.5 -36.5l14 66q49 0 75.5 23t38.5 79l34 159q22 108 133 129q-79 21 -79 109q0 20 4 39l29 132q5 27 5 40q0 33 -18.5 47.5t-56.5 14.5l13 66q84 0 125.5 -29.5t41.5 -95.5q0 -25 -5 -48
l-28 -131q-4 -16 -4 -34q0 -74 80 -81z" />
    <glyph glyph-name="asciitilde" unicode="~" horiz-adv-x="591" 
d="M568 252q-50 -101 -143 -101q-46 0 -122 45t-118 45q-64 0 -107 -80l-56 123q54 102 152 102q47 0 122.5 -45t116.5 -45q64 0 107 80z" />
    <glyph glyph-name="uni00A0" unicode="&#xa0;" horiz-adv-x="220" 
 />
    <glyph glyph-name="exclamdown" unicode="&#xa1;" horiz-adv-x="315" 
d="M192 344q-33 0 -51.5 19t-18.5 51q0 36 24.5 61t61.5 25q33 0 52 -19t19 -50q0 -37 -25.5 -62t-61.5 -25zM144 -215l-175 -22q70 273 187 512l28 -5q4 -98 -7 -233t-33 -252z" />
    <glyph glyph-name="cent" unicode="&#xa2;" 
d="M607 666l-78 -171q30 -11 54 -24l-41 -129q-29 31 -63 43l-132 -288q95 3 173 78h3l-50 -148q-71 -44 -162 -44q-3 0 -8.5 0.5t-7.5 0.5l-70 -154h-86l76 168q-62 23 -95.5 75t-33.5 128q0 131 89.5 220.5t236.5 89.5q13 0 37 -2l72 157h86zM212 211q0 -70 55 -99
l131 285q-84 -4 -135 -56t-51 -130z" />
    <glyph glyph-name="sterling" unicode="&#xa3;" 
d="M530 438l-51 -106q-68 4 -175 4v-7q0 -95 -32 -166q4 -2 21 -11.5t23 -12.5t21.5 -10t25.5 -9.5t25 -5t30 -2.5q76 0 149 74h3l-48 -159q-50 -43 -119 -43q-42 0 -77 13.5t-72 38.5t-50 31q-72 -75 -129 -75q-36 0 -54 19.5t-18 53.5q0 53 47.5 91t122.5 38q7 0 19 -2
q13 39 13 88q0 26 -3 53q-66 -3 -134 -14l57 114l62 5q-9 59 -9 97q0 103 72 170t183 67q114 0 204 -62l-55 -126q-64 67 -152 67q-64 0 -96.5 -45.5t-32.5 -147.5v-16h12q99 0 217 -4z" />
    <glyph glyph-name="currency" unicode="&#xa4;" 
d="M24 130l90 74q-16 38 -16 87q0 82 57 150l-52 67l84 69l53 -67q58 29 116 29q67 0 118 -37l89 73l64 -79l-91 -75q17 -40 17 -86q0 -82 -57 -150l53 -67l-86 -69l-53 67q-53 -29 -115 -29q-70 0 -119 37l-89 -73zM201 292q0 -43 27.5 -72t71.5 -29q57 0 103.5 43t46.5 99
q0 42 -28 71.5t-70 29.5q-58 0 -104.5 -43t-46.5 -99z" />
    <glyph glyph-name="yen" unicode="&#xa5;" 
d="M582 320l-16 -79h-184l-51 -241h-143l50 241h-184l17 79h184l-27 92h-138l17 79h99l-75 261h137l75 -321l212 321h152l-186 -261h97l-16 -79h-138l-65 -92h183z" />
    <glyph glyph-name="brokenbar" unicode="&#xa6;" horiz-adv-x="289" 
d="M197 -110h-105v322h105v-322zM197 470h-105v322h105v-322z" />
    <glyph glyph-name="section" unicode="&#xa7;" horiz-adv-x="493" 
d="M42 318q0 54 37 95.5t100 49.5q-52 48 -52 111q0 66 59 114t149 48q110 0 186 -50l-37 -112h-3q-72 68 -157 68q-36 0 -59 -18.5t-23 -45.5t31 -52q23 -20 72.5 -51t72.5 -50q61 -51 61 -121q0 -52 -37 -93.5t-100 -49.5q52 -46 52 -114t-58 -113t-143 -45
q-124 0 -184 53l14 120h3q31 -37 77.5 -58t92.5 -21q38 0 61 16.5t23 44.5q0 35 -41 66q-20 15 -67.5 42t-72.5 47q-57 46 -57 119zM140 341q0 -38 59 -81q65 -46 111 -46q32 0 51.5 21.5t19.5 49.5q0 40 -59 79q-70 47 -109 47q-35 0 -54 -22t-19 -48z" />
    <glyph glyph-name="dieresis" unicode="&#xa8;" horiz-adv-x="364" 
d="M171 728q29 0 46.5 -17t17.5 -44q0 -31 -21.5 -52t-53.5 -21q-30 0 -46.5 16.5t-16.5 44.5q0 31 21.5 52t52.5 21zM381 728q29 0 46 -17t17 -44q0 -31 -21.5 -52t-52.5 -21q-30 0 -47 16.5t-17 44.5q0 31 21.5 52t53.5 21z" />
    <glyph glyph-name="copyright" unicode="&#xa9;" horiz-adv-x="893" 
d="M75 385q0 167 117.5 284.5t283.5 117.5t284 -117.5t118 -284.5q0 -166 -117.5 -283t-284.5 -117t-284 117t-117 283zM150 385q0 -134 96 -229.5t230 -95.5q135 0 231 95.5t96 229.5q0 135 -96 231t-231 96q-134 0 -230 -96t-96 -231zM662 308l-15 -115q-62 -52 -161 -52
q-107 0 -170 64.5t-63 176.5q0 114 65 185t181 71q91 0 155 -45l-15 -103q-60 58 -137 58q-74 0 -113.5 -44t-39.5 -122q0 -65 38 -108t107 -43q100 0 165 77h3z" />
    <glyph glyph-name="ordfeminine" unicode="&#xaa;" horiz-adv-x="361" 
d="M135 589l19 89q50 27 111 27q120 0 120 -108q0 -18 -5 -40l-42 -198l-96 -20l9 39q-53 -37 -111 -37q-39 0 -60 20t-21 56q0 83 115 121q53 17 115 23l2 7q2 12 2 19q0 40 -49 40q-64 0 -109 -38zM265 448l14 66q-42 -5 -72 -16q-48 -18 -48 -56q0 -30 34 -30q39 0 72 36
z" />
    <glyph glyph-name="guillemotleft" unicode="&#xab;" horiz-adv-x="500" 
d="M132 82l-96 165l156 165h105l-134 -165l64 -165h-95zM326 82l-97 165l157 165h105l-134 -165l64 -165h-95z" />
    <glyph glyph-name="logicalnot" unicode="&#xac;" horiz-adv-x="598" 
d="M67 404h487v-332h-118v221h-369v111z" />
    <glyph glyph-name="uni00AD" unicode="&#xad;" horiz-adv-x="324" 
d="M307 327l-25 -118h-254l25 118h254z" />
    <glyph glyph-name="registered" unicode="&#xae;" horiz-adv-x="583" 
d="M90 525q0 109 76 185.5t186 76.5t186 -76.5t76 -185.5t-76 -185.5t-186 -76.5t-186 76.5t-76 185.5zM145 525q0 -85 60.5 -146t146.5 -61q85 0 145.5 61t60.5 146t-60.5 146t-145.5 61q-86 0 -146.5 -61t-60.5 -146zM247 374v312h85q61 0 93 -26.5t32 -76.5
q0 -68 -63 -95l82 -114h-71l-66 101q-12 -2 -37 -2v-99h-55zM302 633v-106q50 0 73 13t23 42q0 51 -69 51h-27z" />
    <glyph glyph-name="macron" unicode="&#xaf;" horiz-adv-x="305" 
d="M394 709l-21 -96h-285l21 96h285z" />
    <glyph glyph-name="degree" unicode="&#xb0;" horiz-adv-x="351" 
d="M122 641q0 58 40 98.5t98 40.5q57 0 98 -40.5t41 -98.5t-40.5 -98t-98.5 -40t-98 40t-40 98zM189 641q0 -29 21 -50t50 -21t50 21t21 50q0 30 -20.5 51t-50.5 21q-29 0 -50 -21t-21 -51z" />
    <glyph glyph-name="plusminus" unicode="&#xb1;" horiz-adv-x="598" 
d="M553 372v-95h-198v-121h-105v121h-205v95h205v131h105v-131h198zM553 118v-95h-508v95h508z" />
    <glyph glyph-name="twosuperior" unicode="&#xb2;" horiz-adv-x="362" 
d="M315 599q-45 -35 -93 -63h170l-27 -78h-282l16 71q69 41 133 91q50 39 67.5 64t17.5 52q0 18 -13 29t-38 11q-58 0 -116 -41l33 101q40 24 101 24q65 0 98.5 -30.5t33.5 -80.5q0 -35 -22 -70t-79 -80z" />
    <glyph glyph-name="threesuperior" unicode="&#xb3;" horiz-adv-x="355" 
d="M409 762q0 -30 -22.5 -56t-60.5 -39q61 -27 61 -92q0 -56 -48.5 -91.5t-122.5 -35.5q-79 0 -121 22l14 85q38 -26 106 -26q37 0 59 16t22 39q0 18 -17 29t-47 11q-47 0 -84 -10l33 82q24 -2 48 -2q37 0 60 13.5t23 38.5q0 15 -13.5 25t-39.5 10q-52 0 -90 -23l38 91
q29 11 77 11q60 0 92.5 -27t32.5 -71z" />
    <glyph glyph-name="acute" unicode="&#xb4;" horiz-adv-x="226" 
d="M330 755l-191 -179h-61l101 179h151z" />
    <glyph glyph-name="mu" unicode="&#xb5;" horiz-adv-x="578" 
d="M215 -13q-53 0 -60 46l-51 -243l-140 -27l155 731h134l-61 -287q-4 -22 -4 -30q0 -56 59 -56q49 0 89 40q29 25 40 71l56 262h134l-102 -482l-140 -27l15 75q-50 -73 -124 -73z" />
    <glyph glyph-name="paragraph" unicode="&#xb6;" horiz-adv-x="652" 
d="M317 772h403l-18 -87h-92l-174 -817h-96l174 817h-119l-174 -817h-96l113 530q-70 0 -109.5 43t-39.5 117q0 93 64 153.5t164 60.5z" />
    <glyph glyph-name="periodcentered" unicode="&#xb7;" horiz-adv-x="262" 
d="M143 338q33 0 51.5 -19t18.5 -52q0 -35 -25 -60t-62 -25q-33 0 -51.5 19t-18.5 50q0 37 25.5 62t61.5 25z" />
    <glyph glyph-name="cedilla" unicode="&#xb8;" horiz-adv-x="231" 
d="M30 0h57l-38 -53q6 2 11 2q38 0 59.5 -21t21.5 -55q0 -42 -41 -70.5t-99 -28.5q-59 0 -85 26l18 59q19 -25 67 -25q25 0 38 9.5t13 24.5q0 30 -47 30q-29 0 -48 -7l-1 1z" />
    <glyph glyph-name="onesuperior" unicode="&#xb9;" horiz-adv-x="281" 
d="M249 458h-95l68 315l-90 -3l29 80h172z" />
    <glyph glyph-name="ordmasculine" unicode="&#xba;" horiz-adv-x="421" 
d="M251 414q49 0 79 42.5t30 94.5q0 37 -18.5 58.5t-51.5 21.5q-46 0 -77 -36t-31 -93q0 -40 17.5 -64t51.5 -24zM239 338q-71 0 -113 42t-42 114q0 93 64 152.5t154 59.5q71 0 113 -39t42 -107q0 -90 -62.5 -156t-155.5 -66z" />
    <glyph glyph-name="guillemotright" unicode="&#xbb;" horiz-adv-x="500" 
d="M167 412l104 -165l-164 -165h-97l134 165l-64 165h87zM361 412l104 -165l-164 -165h-98l134 165l-64 165h88z" />
    <glyph glyph-name="onequarter" unicode="&#xbc;" horiz-adv-x="843" 
d="M814 780l-682 -810h-101l682 810h101zM255 360h-95l68 315l-90 -3l29 80h172zM610 0l20 94h-201l11 50l243 248h96l-49 -229h64l-15 -69h-64l-20 -94h-85zM522 163h123l34 160z" />
    <glyph glyph-name="onehalf" unicode="&#xbd;" horiz-adv-x="843" 
d="M792 780l-682 -810h-101l682 810h101zM252 360h-95l68 315l-90 -3l29 80h172zM677 141q-45 -35 -93 -63h170l-27 -78h-282l16 71q69 41 133 91q50 39 67.5 64t17.5 52q0 18 -13 29t-38 11q-58 0 -116 -41l33 101q40 24 101 24q65 0 98.5 -30.5t33.5 -80.5q0 -35 -22 -70
t-79 -80z" />
    <glyph glyph-name="threequarters" unicode="&#xbe;" horiz-adv-x="843" 
d="M840 780l-682 -810h-101l682 810h101zM617 0l20 94h-201l11 50l243 248h96l-49 -229h64l-15 -69h-64l-20 -94h-85zM529 163h123l34 160zM389 664q0 -30 -22.5 -56t-60.5 -39q61 -27 61 -92q0 -56 -48.5 -91.5t-122.5 -35.5q-79 0 -121 22l14 85q38 -26 106 -26
q37 0 59 16t22 39q0 18 -17 29t-47 11q-47 0 -84 -10l33 82q24 -2 48 -2q37 0 60 13.5t23 38.5q0 15 -13.5 25t-39.5 10q-52 0 -90 -23l38 91q29 11 77 11q60 0 92.5 -27t32.5 -71z" />
    <glyph glyph-name="questiondown" unicode="&#xbf;" horiz-adv-x="455" 
d="M255 257l125 26l-38 -178q-105 -6 -165.5 -45.5t-60.5 -102.5q0 -34 24 -54t69 -20q56 0 101 16l-38 -123q-43 -13 -95 -13q-92 0 -147 47t-55 132q0 95 74 162.5t192 88.5zM355 500q33 0 51.5 -19.5t18.5 -51.5q0 -36 -25 -60.5t-61 -24.5q-33 0 -52 19t-19 50
q0 37 25.5 62t61.5 25z" />
    <glyph glyph-name="Agrave" unicode="&#xc0;" horiz-adv-x="789" 
d="M-50 0l510 768l110 16l165 -784h-152l-37 201h-299l-122 -201h-175zM482 586l-172 -275h220zM521 815l-116 149h134l51 -149h-69z" />
    <glyph glyph-name="Aacute" unicode="&#xc1;" horiz-adv-x="789" 
d="M-50 0l510 768l110 16l165 -784h-152l-37 201h-299l-122 -201h-175zM482 586l-172 -275h220zM714 964l-171 -149h-77l96 149h152z" />
    <glyph glyph-name="Acircumflex" unicode="&#xc2;" horiz-adv-x="789" 
d="M-50 0l510 768l110 16l165 -784h-152l-37 201h-299l-122 -201h-175zM482 586l-172 -275h220zM624 815l-73 80l-104 -80h-75l128 149h120l65 -149h-61z" />
    <glyph glyph-name="Atilde" unicode="&#xc3;" horiz-adv-x="789" 
d="M-50 0l510 768l110 16l165 -784h-152l-37 201h-299l-122 -201h-175zM482 586l-172 -275h220zM474 857q-23 0 -42 -16t-25 -38l-49 11q20 64 55 101.5t74 37.5q25 0 67.5 -17t60.5 -17q23 0 41 15.5t26 38.5l49 -11q-21 -64 -56 -101.5t-73 -37.5q-26 0 -68.5 17t-59.5 17
z" />
    <glyph glyph-name="Adieresis" unicode="&#xc4;" horiz-adv-x="789" 
d="M-50 0l510 768l110 16l165 -784h-152l-37 201h-299l-122 -201h-175zM482 586l-172 -275h220zM437 965q31 0 48.5 -17.5t17.5 -47.5q0 -31 -23 -53t-55 -22q-31 0 -49 17t-18 46q0 33 23 55t56 22zM665 965q30 0 47.5 -18t17.5 -47q0 -31 -22.5 -53t-55.5 -22
q-31 0 -49 17t-18 46q0 33 23 55t57 22z" />
    <glyph glyph-name="Aring" unicode="&#xc5;" horiz-adv-x="789" 
d="M-50 0l510 768l110 16l165 -784h-152l-37 201h-299l-122 -201h-175zM482 586l-172 -275h220zM441 897q0 44 37 79t82 35q41 0 67 -28t26 -68q0 -44 -37 -79t-82 -35q-41 0 -67 28t-26 68zM488 897q0 -21 13 -35t33 -14q27 0 49.5 20.5t22.5 46.5q0 20 -13.5 34.5
t-33.5 14.5q-27 0 -49 -20.5t-22 -46.5z" />
    <glyph glyph-name="AE" unicode="&#xc6;" horiz-adv-x="968" 
d="M700 644l-40 -184h252l-26 -119h-251l-46 -214h297l-26 -127h-443l50 235h-215l-170 -235h-162l559 772h545l-27 -128h-297zM337 352h155l61 292h-5z" />
    <glyph glyph-name="Ccedilla" unicode="&#xc7;" horiz-adv-x="744" 
d="M784 716l-48 -164h-3q-64 94 -202 94q-129 0 -220 -92.5t-91 -219.5q0 -93 54 -150t148 -57q150 0 270 129h3l-58 -199q-95 -64 -222 -70l-29 -40q6 2 11 2q38 0 59.5 -21t21.5 -55q0 -42 -41 -70.5t-99 -28.5q-59 0 -85 26l18 59q19 -25 67 -25q25 0 38 9.5t13 24.5
q0 30 -47 30q-29 0 -48 -7l-1 1l66 97q-134 11 -211 104t-77 241q0 88 38 171t101 144.5t150 98.5t181 37q155 0 243 -69z" />
    <glyph glyph-name="Egrave" unicode="&#xc8;" horiz-adv-x="591" 
d="M321 645l-40 -185h256l-26 -119h-255l-46 -214h301l-26 -127h-446l164 772h443l-26 -127h-299zM426 815l-116 149h134l51 -149h-69z" />
    <glyph glyph-name="Eacute" unicode="&#xc9;" horiz-adv-x="591" 
d="M321 645l-40 -185h256l-26 -119h-255l-46 -214h301l-26 -127h-446l164 772h443l-26 -127h-299zM618 964l-171 -149h-77l96 149h152z" />
    <glyph glyph-name="Ecircumflex" unicode="&#xca;" horiz-adv-x="591" 
d="M321 645l-40 -185h256l-26 -119h-255l-46 -214h301l-26 -127h-446l164 772h443l-26 -127h-299zM528 815l-73 80l-104 -80h-75l128 149h120l65 -149h-61z" />
    <glyph glyph-name="Edieresis" unicode="&#xcb;" horiz-adv-x="591" 
d="M321 645l-40 -185h256l-26 -119h-255l-46 -214h301l-26 -127h-446l164 772h443l-26 -127h-299zM342 965q30 0 48 -17.5t18 -47.5q0 -31 -23 -53t-55 -22q-31 0 -49 17t-18 46q0 33 23 55t56 22zM570 965q30 0 47.5 -18t17.5 -47q0 -31 -22.5 -53t-55.5 -22q-31 0 -49 17
t-18 46q0 33 23 55t57 22z" />
    <glyph glyph-name="Igrave" unicode="&#xcc;" horiz-adv-x="326" 
d="M183 0h-144l164 772h144zM277 815l-116 149h134l51 -149h-69z" />
    <glyph glyph-name="Iacute" unicode="&#xcd;" horiz-adv-x="326" 
d="M183 0h-144l164 772h144zM470 964l-171 -149h-77l96 149h152z" />
    <glyph glyph-name="Icircumflex" unicode="&#xce;" horiz-adv-x="326" 
d="M183 0h-144l164 772h144zM380 815l-73 80l-104 -80h-75l128 149h120l65 -149h-61z" />
    <glyph glyph-name="Idieresis" unicode="&#xcf;" horiz-adv-x="326" 
d="M183 0h-144l164 772h144zM193 965q31 0 48.5 -17.5t17.5 -47.5q0 -31 -23 -53t-55 -22q-31 0 -49 17t-18 46q0 33 23 55t56 22zM421 965q30 0 47.5 -18t17.5 -47q0 -31 -22.5 -53t-55.5 -22q-31 0 -49 17t-18 46q0 33 23 55t57 22z" />
    <glyph glyph-name="Eth" unicode="&#xd0;" horiz-adv-x="776" 
d="M257 0h-218l71 337h-62l24 111h62l69 324h202q174 0 268.5 -89t94.5 -238q0 -201 -135 -323t-376 -122zM319 640l-41 -192h153l-24 -111h-152l-43 -204h71q158 0 246 85t88 225q0 87 -56.5 142t-161.5 55h-80z" />
    <glyph glyph-name="Ntilde" unicode="&#xd1;" horiz-adv-x="886" 
d="M767 772h141l-164 -772h-117l-331 546l-116 -546h-141l164 772h117l331 -545zM511 857q-23 0 -42 -16t-25 -38l-49 11q20 64 55 101.5t74 37.5q25 0 67.5 -17t60.5 -17q23 0 41 15.5t26 38.5l49 -11q-21 -64 -56 -101.5t-73 -37.5q-26 0 -68.5 17t-59.5 17z" />
    <glyph glyph-name="Ograve" unicode="&#xd2;" horiz-adv-x="854" 
d="M402 118q122 0 207 101.5t85 224.5q0 94 -49 152t-133 58q-119 0 -206.5 -92.5t-87.5 -221.5q0 -98 50 -160t134 -62zM842 456q0 -120 -57 -227.5t-161.5 -175.5t-229.5 -68q-149 0 -237 94.5t-88 246.5q0 126 61.5 232.5t165 167.5t223.5 61q149 0 236 -90.5t87 -240.5z
M527 815l-116 149h134l51 -149h-69z" />
    <glyph glyph-name="Oacute" unicode="&#xd3;" horiz-adv-x="854" 
d="M402 118q122 0 207 101.5t85 224.5q0 94 -49 152t-133 58q-119 0 -206.5 -92.5t-87.5 -221.5q0 -98 50 -160t134 -62zM842 456q0 -120 -57 -227.5t-161.5 -175.5t-229.5 -68q-149 0 -237 94.5t-88 246.5q0 126 61.5 232.5t165 167.5t223.5 61q149 0 236 -90.5t87 -240.5z
M719 964l-171 -149h-77l96 149h152z" />
    <glyph glyph-name="Ocircumflex" unicode="&#xd4;" horiz-adv-x="854" 
d="M402 118q122 0 207 101.5t85 224.5q0 94 -49 152t-133 58q-119 0 -206.5 -92.5t-87.5 -221.5q0 -98 50 -160t134 -62zM842 456q0 -120 -57 -227.5t-161.5 -175.5t-229.5 -68q-149 0 -237 94.5t-88 246.5q0 126 61.5 232.5t165 167.5t223.5 61q149 0 236 -90.5t87 -240.5z
M630 815l-73 80l-104 -80h-75l128 149h120l65 -149h-61z" />
    <glyph glyph-name="Otilde" unicode="&#xd5;" horiz-adv-x="854" 
d="M402 118q122 0 207 101.5t85 224.5q0 94 -49 152t-133 58q-119 0 -206.5 -92.5t-87.5 -221.5q0 -98 50 -160t134 -62zM842 456q0 -120 -57 -227.5t-161.5 -175.5t-229.5 -68q-149 0 -237 94.5t-88 246.5q0 126 61.5 232.5t165 167.5t223.5 61q149 0 236 -90.5t87 -240.5z
M480 857q-23 0 -42 -16t-25 -38l-49 11q20 64 55 101.5t74 37.5q25 0 67.5 -17t60.5 -17q23 0 41 15.5t26 38.5l49 -11q-21 -64 -56 -101.5t-73 -37.5q-26 0 -68.5 17t-59.5 17z" />
    <glyph glyph-name="Odieresis" unicode="&#xd6;" horiz-adv-x="854" 
d="M402 118q122 0 207 101.5t85 224.5q0 94 -49 152t-133 58q-119 0 -206.5 -92.5t-87.5 -221.5q0 -98 50 -160t134 -62zM842 456q0 -120 -57 -227.5t-161.5 -175.5t-229.5 -68q-149 0 -237 94.5t-88 246.5q0 126 61.5 232.5t165 167.5t223.5 61q149 0 236 -90.5t87 -240.5z
M443 965q31 0 48.5 -17.5t17.5 -47.5q0 -31 -23 -53t-55 -22q-31 0 -49 17t-18 46q0 33 23 55t56 22zM671 965q30 0 47.5 -18t17.5 -47q0 -31 -22.5 -53t-55.5 -22q-31 0 -49 17t-18 46q0 33 23 55t57 22z" />
    <glyph glyph-name="multiply" unicode="&#xd7;" horiz-adv-x="598" 
d="M64 101l158 158l-168 168l78 77l167 -168l168 168l77 -77l-168 -168l158 -158l-77 -77l-158 157l-157 -157z" />
    <glyph glyph-name="Oslash" unicode="&#xd8;" horiz-adv-x="854" 
d="M842 456q0 -120 -57 -227.5t-161.5 -175.5t-229.5 -68q-129 0 -214 72l-66 -65l-82 31l95 94q-58 85 -58 209q0 126 61.5 232.5t165 167.5t223.5 61q129 0 214 -71l65 64l84 -30l-95 -94q55 -85 55 -200zM218 340q0 -64 21 -112l389 384q-47 42 -116 42
q-119 0 -206.5 -92.5t-87.5 -221.5zM402 118q122 0 207 101.5t85 224.5q0 55 -19 102l-390 -385q48 -43 117 -43z" />
    <glyph glyph-name="Ugrave" unicode="&#xd9;" horiz-adv-x="777" 
d="M196 772h145l-101 -471q-6 -34 -6 -63q0 -55 33.5 -82.5t87.5 -27.5q73 0 130 44t75 129l100 471h145l-102 -479q-32 -154 -127 -230.5t-226 -76.5q-121 0 -193 59.5t-72 177.5q0 21 8 63zM494 815l-116 149h134l51 -149h-69z" />
    <glyph glyph-name="Uacute" unicode="&#xda;" horiz-adv-x="777" 
d="M196 772h145l-101 -471q-6 -34 -6 -63q0 -55 33.5 -82.5t87.5 -27.5q73 0 130 44t75 129l100 471h145l-102 -479q-32 -154 -127 -230.5t-226 -76.5q-121 0 -193 59.5t-72 177.5q0 21 8 63zM686 964l-171 -149h-77l96 149h152z" />
    <glyph glyph-name="Ucircumflex" unicode="&#xdb;" horiz-adv-x="777" 
d="M196 772h145l-101 -471q-6 -34 -6 -63q0 -55 33.5 -82.5t87.5 -27.5q73 0 130 44t75 129l100 471h145l-102 -479q-32 -154 -127 -230.5t-226 -76.5q-121 0 -193 59.5t-72 177.5q0 21 8 63zM596 815l-73 80l-104 -80h-75l128 149h120l65 -149h-61z" />
    <glyph glyph-name="Udieresis" unicode="&#xdc;" horiz-adv-x="777" 
d="M196 772h145l-101 -471q-6 -34 -6 -63q0 -55 33.5 -82.5t87.5 -27.5q73 0 130 44t75 129l100 471h145l-102 -479q-32 -154 -127 -230.5t-226 -76.5q-121 0 -193 59.5t-72 177.5q0 21 8 63zM410 965q30 0 48 -17.5t18 -47.5q0 -31 -23 -53t-55 -22q-31 0 -49 17t-18 46
q0 33 23 55t56 22zM638 965q30 0 47.5 -18t17.5 -47q0 -31 -22.5 -53t-55.5 -22q-31 0 -49 17t-18 46q0 33 23 55t57 22z" />
    <glyph glyph-name="Yacute" unicode="&#xdd;" horiz-adv-x="724" 
d="M369 0h-145l78 364l-192 408h161l120 -281l254 281h193l-391 -407zM653 964l-171 -149h-77l96 149h152z" />
    <glyph glyph-name="Thorn" unicode="&#xde;" horiz-adv-x="618" 
d="M183 0h-144l164 772h144l-25 -120h48q125 0 194 -56t69 -155q0 -139 -91.5 -215.5t-261.5 -76.5h-65zM296 529l-55 -257h56q93 0 143.5 41.5t50.5 114.5q0 48 -34.5 74.5t-99.5 26.5h-61z" />
    <glyph glyph-name="germandbls" unicode="&#xdf;" horiz-adv-x="633" 
d="M622 617q0 -136 -176 -208q68 -28 105.5 -79t37.5 -117q0 -96 -71 -163t-184 -67q-80 0 -120 32l12 130h3q24 -45 93 -45q64 0 97 34t33 87q0 47 -39.5 81.5t-120.5 48.5l23 110q85 20 126.5 59t41.5 86q0 60 -68 60q-53 0 -92.5 -37.5t-53.5 -103.5l-112 -525h-137
l112 528q24 110 105.5 181t191.5 71q92 0 142.5 -44.5t50.5 -118.5z" />
    <glyph glyph-name="agrave" unicode="&#xe0;" horiz-adv-x="519" 
d="M109 342l27 129q69 38 160 38q173 0 173 -155q0 -27 -7 -58l-60 -284l-140 -27l12 54q-79 -52 -157 -52q-55 0 -86 29t-31 81q0 121 165 173q72 24 165 33l2 13q3 12 3 24q0 57 -70 57q-91 0 -156 -55zM295 140l20 94q-59 -7 -101 -23q-68 -26 -68 -79q0 -42 48 -42
q57 0 101 50zM328 591l-117 179h134l42 -179h-59z" />
    <glyph glyph-name="aacute" unicode="&#xe1;" horiz-adv-x="519" 
d="M109 342l27 129q69 38 160 38q173 0 173 -155q0 -27 -7 -58l-60 -284l-140 -27l12 54q-79 -52 -157 -52q-55 0 -86 29t-31 81q0 121 165 173q72 24 165 33l2 13q3 12 3 24q0 57 -70 57q-91 0 -156 -55zM295 140l20 94q-59 -7 -101 -23q-68 -26 -68 -79q0 -42 48 -42
q57 0 101 50zM519 770l-191 -179h-61l101 179h151z" />
    <glyph glyph-name="acircumflex" unicode="&#xe2;" horiz-adv-x="519" 
d="M109 342l27 129q69 38 160 38q173 0 173 -155q0 -27 -7 -58l-60 -284l-140 -27l12 54q-79 -52 -157 -52q-55 0 -86 29t-31 81q0 121 165 173q72 24 165 33l2 13q3 12 3 24q0 57 -70 57q-91 0 -156 -55zM295 140l20 94q-59 -7 -101 -23q-68 -26 -68 -79q0 -42 48 -42
q57 0 101 50zM417 591l-64 97l-104 -97h-71l143 179h89l66 -179h-59z" />
    <glyph glyph-name="atilde" unicode="&#xe3;" horiz-adv-x="519" 
d="M109 342l27 129q69 38 160 38q173 0 173 -155q0 -27 -7 -58l-60 -284l-140 -27l12 54q-79 -52 -157 -52q-55 0 -86 29t-31 81q0 121 165 173q72 24 165 33l2 13q3 12 3 24q0 57 -70 57q-91 0 -156 -55zM295 140l20 94q-59 -7 -101 -23q-68 -26 -68 -79q0 -42 48 -42
q57 0 101 50zM280 650q-21 0 -38 -14t-23 -36l-46 11q16 65 49.5 103.5t73.5 38.5q25 0 65.5 -23t57.5 -23q21 0 38 14t24 36l46 -11q-16 -65 -49.5 -103.5t-73.5 -38.5q-25 0 -66 23t-58 23z" />
    <glyph glyph-name="adieresis" unicode="&#xe4;" horiz-adv-x="519" 
d="M109 342l27 129q69 38 160 38q173 0 173 -155q0 -27 -7 -58l-60 -284l-140 -27l12 54q-79 -52 -157 -52q-55 0 -86 29t-31 81q0 121 165 173q72 24 165 33l2 13q3 12 3 24q0 57 -70 57q-91 0 -156 -55zM295 140l20 94q-59 -7 -101 -23q-68 -26 -68 -79q0 -42 48 -42
q57 0 101 50zM246 743q29 0 46.5 -17t17.5 -44q0 -31 -21.5 -52t-53.5 -21q-30 0 -46.5 16.5t-16.5 44.5q0 31 21.5 52t52.5 21zM456 743q29 0 46 -17t17 -44q0 -31 -21.5 -52t-52.5 -21q-30 0 -47 16.5t-17 44.5q0 31 21.5 52t53.5 21z" />
    <glyph glyph-name="aring" unicode="&#xe5;" horiz-adv-x="519" 
d="M109 342l27 129q69 38 160 38q173 0 173 -155q0 -27 -7 -58l-60 -284l-140 -27l12 54q-79 -52 -157 -52q-55 0 -86 29t-31 81q0 121 165 173q72 24 165 33l2 13q3 12 3 24q0 57 -70 57q-91 0 -156 -55zM295 140l20 94q-59 -7 -101 -23q-68 -26 -68 -79q0 -42 48 -42
q57 0 101 50zM237 672q0 46 38 82t83 36q42 0 69.5 -29t27.5 -70q0 -46 -37.5 -82t-83.5 -36q-42 0 -69.5 29t-27.5 70zM290 672q0 -19 12.5 -32.5t31.5 -13.5q27 0 47.5 19.5t20.5 45.5q0 19 -12.5 32t-31.5 13q-27 0 -47.5 -19t-20.5 -45z" />
    <glyph glyph-name="ae" unicode="&#xe6;" horiz-adv-x="770" 
d="M137 467q67 44 160 44q109 0 139 -71q81 68 178 68q70 0 105 -34t35 -90q0 -59 -53 -103.5t-159 -61.5q-51 -9 -120 -14v-7q0 -100 97 -100q47 0 94 21t82 58h3l-37 -143q-69 -51 -165 -51q-121 0 -167 77q-102 -77 -193 -77q-63 0 -98.5 33t-35.5 91q0 108 175 158
q60 17 147 22l6 28q3 15 3 29q0 55 -66 55q-84 0 -158 -62zM574 412q-43 0 -83.5 -41.5t-58.5 -102.5q44 6 95 19q91 25 91 86q0 18 -11.5 28.5t-32.5 10.5zM188 90q62 0 118 50q-1 8 -1 25q0 26 4 49v2q-62 -4 -99 -17q-65 -22 -65 -67q0 -18 11 -30t32 -12z" />
    <glyph glyph-name="ccedilla" unicode="&#xe7;" horiz-adv-x="503" 
d="M454 173l-52 -155q-60 -35 -144 -35l-26 -36q6 2 11 2q38 0 59.5 -21t21.5 -55q0 -42 -41 -70.5t-99 -28.5q-59 0 -85 26l18 59q19 -25 67 -25q25 0 38 9.5t13 24.5q0 30 -47 30q-29 0 -48 -7l-1 1l65 96q-81 13 -125 69t-44 143q0 131 89.5 221t234.5 90q94 0 148 -40
l-41 -127q-42 45 -111 45q-79 0 -129 -50.5t-50 -127.5q0 -48 30.5 -77t87.5 -29q88 0 157 68h3z" />
    <glyph glyph-name="egrave" unicode="&#xe8;" horiz-adv-x="520" 
d="M312 219q-66 -17 -161 -30q5 -41 33 -65.5t80 -24.5q100 0 184 78h3l-42 -143q-68 -51 -164 -51q-107 0 -161.5 59t-54.5 149q0 76 44.5 150t120.5 122t159 48q73 0 112.5 -35t39.5 -93q0 -118 -193 -164zM317 411q-49 0 -98 -48t-64 -112q69 14 118 30q94 32 94 87
q0 43 -50 43zM355 591l-117 179h134l42 -179h-59z" />
    <glyph glyph-name="eacute" unicode="&#xe9;" horiz-adv-x="520" 
d="M312 219q-66 -17 -161 -30q5 -41 33 -65.5t80 -24.5q100 0 184 78h3l-42 -143q-68 -51 -164 -51q-107 0 -161.5 59t-54.5 149q0 76 44.5 150t120.5 122t159 48q73 0 112.5 -35t39.5 -93q0 -118 -193 -164zM317 411q-49 0 -98 -48t-64 -112q69 14 118 30q94 32 94 87
q0 43 -50 43zM547 770l-191 -179h-61l101 179h151z" />
    <glyph glyph-name="ecircumflex" unicode="&#xea;" horiz-adv-x="520" 
d="M312 219q-66 -17 -161 -30q5 -41 33 -65.5t80 -24.5q100 0 184 78h3l-42 -143q-68 -51 -164 -51q-107 0 -161.5 59t-54.5 149q0 76 44.5 150t120.5 122t159 48q73 0 112.5 -35t39.5 -93q0 -118 -193 -164zM317 411q-49 0 -98 -48t-64 -112q69 14 118 30q94 32 94 87
q0 43 -50 43zM444 591l-64 97l-104 -97h-71l143 179h89l66 -179h-59z" />
    <glyph glyph-name="edieresis" unicode="&#xeb;" horiz-adv-x="520" 
d="M312 219q-66 -17 -161 -30q5 -41 33 -65.5t80 -24.5q100 0 184 78h3l-42 -143q-68 -51 -164 -51q-107 0 -161.5 59t-54.5 149q0 76 44.5 150t120.5 122t159 48q73 0 112.5 -35t39.5 -93q0 -118 -193 -164zM317 411q-49 0 -98 -48t-64 -112q69 14 118 30q94 32 94 87
q0 43 -50 43zM273 743q29 0 46.5 -17t17.5 -44q0 -31 -21.5 -52t-53.5 -21q-30 0 -46.5 16.5t-16.5 44.5q0 31 21.5 52t52.5 21zM483 743q29 0 46 -17t17 -44q0 -31 -21.5 -52t-52.5 -21q-30 0 -47 16.5t-17 44.5q0 31 21.5 52t53.5 21z" />
    <glyph glyph-name="igrave" unicode="&#xec;" horiz-adv-x="288" 
d="M126 481l143 28l-108 -509h-137zM218 591l-117 179h134l42 -179h-59z" />
    <glyph glyph-name="iacute" unicode="&#xed;" horiz-adv-x="288" 
d="M126 481l143 28l-108 -509h-137zM409 770l-191 -179h-61l101 179h151z" />
    <glyph glyph-name="icircumflex" unicode="&#xee;" horiz-adv-x="288" 
d="M126 481l143 28l-108 -509h-137zM307 591l-64 97l-104 -97h-71l143 179h89l66 -179h-59z" />
    <glyph glyph-name="idieresis" unicode="&#xef;" horiz-adv-x="288" 
d="M139 728q29 0 45.5 -17t16.5 -44q0 -31 -21 -52t-52 -21q-29 0 -45.5 16.5t-16.5 44.5q0 31 21.5 52t51.5 21zM329 728q28 0 45 -17t17 -44q0 -31 -21 -52t-52 -21q-30 0 -46 16.5t-16 44.5q0 31 21 52t52 21zM126 481l143 28l-108 -509h-137z" />
    <glyph glyph-name="eth" unicode="&#xf0;" horiz-adv-x="599" 
d="M177 563l10 71l143 43q-42 39 -88 57v3l142 51q50 -24 89 -68l143 43l-9 -71l-93 -28q68 -115 68 -274q0 -186 -90.5 -296.5t-242.5 -110.5q-99 0 -157 62.5t-58 158.5q0 132 86.5 219t212.5 87q56 0 97 -23q-16 76 -55 135zM258 90q80 0 130 75.5t53 202.5
q-34 40 -93 40q-73 0 -123 -59.5t-50 -145.5q0 -50 22 -81.5t61 -31.5z" />
    <glyph glyph-name="ntilde" unicode="&#xf1;" horiz-adv-x="607" 
d="M24 0l105 494h137l-13 -62q87 76 174 76q64 0 99 -36t35 -99q0 -24 -5 -52l-69 -321h-137l62 292q4 17 4 33q0 58 -61 58q-52 0 -92 -38q-37 -32 -47 -83l-55 -262h-137zM328 650q-21 0 -38 -14t-23 -36l-46 11q16 65 49.5 103.5t73.5 38.5q25 0 65.5 -23t57.5 -23
q21 0 38 14t24 36l46 -11q-16 -65 -49.5 -103.5t-73.5 -38.5q-25 0 -66 23t-58 23z" />
    <glyph glyph-name="ograve" unicode="&#xf2;" horiz-adv-x="606" 
d="M276 94q69 0 111.5 60t42.5 134q0 53 -25.5 83.5t-72.5 30.5q-66 0 -109.5 -51t-43.5 -132q0 -57 25 -91t72 -34zM259 -17q-102 0 -162.5 60t-60.5 164q0 134 92 219.5t221 85.5q102 0 162.5 -56.5t60.5 -154.5q0 -129 -90 -223.5t-223 -94.5zM378 591l-117 179h134
l42 -179h-59z" />
    <glyph glyph-name="oacute" unicode="&#xf3;" horiz-adv-x="606" 
d="M276 94q69 0 111.5 60t42.5 134q0 53 -25.5 83.5t-72.5 30.5q-66 0 -109.5 -51t-43.5 -132q0 -57 25 -91t72 -34zM259 -17q-102 0 -162.5 60t-60.5 164q0 134 92 219.5t221 85.5q102 0 162.5 -56.5t60.5 -154.5q0 -129 -90 -223.5t-223 -94.5zM569 770l-191 -179h-61
l101 179h151z" />
    <glyph glyph-name="ocircumflex" unicode="&#xf4;" horiz-adv-x="606" 
d="M276 94q69 0 111.5 60t42.5 134q0 53 -25.5 83.5t-72.5 30.5q-66 0 -109.5 -51t-43.5 -132q0 -57 25 -91t72 -34zM259 -17q-102 0 -162.5 60t-60.5 164q0 134 92 219.5t221 85.5q102 0 162.5 -56.5t60.5 -154.5q0 -129 -90 -223.5t-223 -94.5zM467 591l-64 97l-104 -97
h-71l143 179h89l66 -179h-59z" />
    <glyph glyph-name="otilde" unicode="&#xf5;" horiz-adv-x="606" 
d="M276 94q69 0 111.5 60t42.5 134q0 53 -25.5 83.5t-72.5 30.5q-66 0 -109.5 -51t-43.5 -132q0 -57 25 -91t72 -34zM259 -17q-102 0 -162.5 60t-60.5 164q0 134 92 219.5t221 85.5q102 0 162.5 -56.5t60.5 -154.5q0 -129 -90 -223.5t-223 -94.5zM330 650q-21 0 -38 -14
t-23 -36l-46 11q16 65 49.5 103.5t73.5 38.5q25 0 65.5 -23t57.5 -23q21 0 38 14t24 36l46 -11q-16 -65 -49.5 -103.5t-73.5 -38.5q-25 0 -66 23t-58 23z" />
    <glyph glyph-name="odieresis" unicode="&#xf6;" horiz-adv-x="606" 
d="M276 94q69 0 111.5 60t42.5 134q0 53 -25.5 83.5t-72.5 30.5q-66 0 -109.5 -51t-43.5 -132q0 -57 25 -91t72 -34zM259 -17q-102 0 -162.5 60t-60.5 164q0 134 92 219.5t221 85.5q102 0 162.5 -56.5t60.5 -154.5q0 -129 -90 -223.5t-223 -94.5zM296 743q29 0 46.5 -17
t17.5 -44q0 -31 -21.5 -52t-53.5 -21q-30 0 -46.5 16.5t-16.5 44.5q0 31 21.5 52t52.5 21zM506 743q29 0 46 -17t17 -44q0 -31 -21.5 -52t-52.5 -21q-30 0 -47 16.5t-17 44.5q0 31 21.5 52t53.5 21z" />
    <glyph glyph-name="divide" unicode="&#xf7;" horiz-adv-x="598" 
d="M553 310v-103h-508v103h508zM298 161q31 0 50 -18.5t19 -49.5t-18.5 -49t-47.5 -18q-32 0 -50.5 18t-18.5 49t18 49.5t48 18.5zM298 490q31 0 50 -18.5t19 -49.5q0 -30 -18 -48t-48 -18q-32 0 -50.5 17.5t-18.5 48.5t18 49.5t48 18.5z" />
    <glyph glyph-name="oslash" unicode="&#xf8;" horiz-adv-x="606" 
d="M259 -17q-77 0 -133 36l-44 -46l-63 19l63 66q-46 58 -46 149q0 134 92 219.5t221 85.5q74 0 128 -31l39 41l63 -18l-57 -60q50 -56 50 -143q0 -129 -90 -223.5t-223 -94.5zM276 94q69 0 111.5 60t42.5 134q0 29 -9 53l-207 -225q24 -22 62 -22zM179 219q0 -33 7 -55
l205 220q-26 18 -59 18q-66 0 -109.5 -51t-43.5 -132z" />
    <glyph glyph-name="ugrave" unicode="&#xf9;" horiz-adv-x="599" 
d="M121 494h138l-63 -294q-4 -15 -4 -30q0 -57 60 -57q63 0 107 57q16 21 24 54l58 270h136l-103 -482l-142 -27l16 77q-78 -75 -169 -75q-66 0 -99 35t-33 101q0 28 6 55zM360 591l-117 179h134l42 -179h-59z" />
    <glyph glyph-name="uacute" unicode="&#xfa;" horiz-adv-x="599" 
d="M121 494h138l-63 -294q-4 -15 -4 -30q0 -57 60 -57q63 0 107 57q16 21 24 54l58 270h136l-103 -482l-142 -27l16 77q-78 -75 -169 -75q-66 0 -99 35t-33 101q0 28 6 55zM552 770l-191 -179h-61l101 179h151z" />
    <glyph glyph-name="ucircumflex" unicode="&#xfb;" horiz-adv-x="599" 
d="M121 494h138l-63 -294q-4 -15 -4 -30q0 -57 60 -57q63 0 107 57q16 21 24 54l58 270h136l-103 -482l-142 -27l16 77q-78 -75 -169 -75q-66 0 -99 35t-33 101q0 28 6 55zM449 591l-64 97l-104 -97h-71l143 179h89l66 -179h-59z" />
    <glyph glyph-name="udieresis" unicode="&#xfc;" horiz-adv-x="599" 
d="M121 494h138l-63 -294q-4 -15 -4 -30q0 -57 60 -57q63 0 107 57q16 21 24 54l58 270h136l-103 -482l-142 -27l16 77q-78 -75 -169 -75q-66 0 -99 35t-33 101q0 28 6 55zM278 743q29 0 46.5 -17t17.5 -44q0 -31 -21.5 -52t-53.5 -21q-30 0 -46.5 16.5t-16.5 44.5
q0 31 21.5 52t52.5 21zM488 743q29 0 46 -17t17 -44q0 -31 -21.5 -52t-52.5 -21q-30 0 -47 16.5t-17 44.5q0 31 21.5 52t53.5 21z" />
    <glyph glyph-name="yacute" unicode="&#xfd;" horiz-adv-x="547" 
d="M-54 -234q120 102 207 241l-100 487h140l54 -334l206 334h148l-325 -507q-96 -150 -162 -224h-169zM525 770l-191 -179h-61l101 179h151z" />
    <glyph glyph-name="thorn" unicode="&#xfe;" horiz-adv-x="613" 
d="M184 752l143 28l-61 -285q44 12 87 12q102 0 164 -59.5t62 -161.5q0 -130 -92 -216.5t-235 -86.5q-58 0 -91 16l-44 -208l-143 -28zM319 404q-47 0 -76 -19l-60 -281q24 -19 69 -19q82 0 134 56t52 142q0 56 -31.5 88.5t-87.5 32.5z" />
    <glyph glyph-name="ydieresis" unicode="&#xff;" horiz-adv-x="547" 
d="M-54 -234q120 102 207 241l-100 487h140l54 -334l206 334h148l-325 -507q-96 -150 -162 -224h-169zM251 743q29 0 46.5 -17t17.5 -44q0 -31 -21.5 -52t-53.5 -21q-30 0 -46.5 16.5t-16.5 44.5q0 31 21.5 52t52.5 21zM461 743q29 0 46 -17t17 -44q0 -31 -21.5 -52
t-52.5 -21q-30 0 -47 16.5t-17 44.5q0 31 21.5 52t53.5 21z" />
    <glyph glyph-name="Amacron" unicode="&#x100;" horiz-adv-x="789" 
d="M-50 0l510 768l110 16l165 -784h-152l-37 201h-299l-122 -201h-175zM482 586l-172 -275h220zM711 931l-19 -88h-316l19 88h316z" />
    <glyph glyph-name="amacron" unicode="&#x101;" horiz-adv-x="519" 
d="M109 342l27 129q69 38 160 38q173 0 173 -155q0 -27 -7 -58l-60 -284l-140 -27l12 54q-79 -52 -157 -52q-55 0 -86 29t-31 81q0 121 165 173q72 24 165 33l2 13q3 12 3 24q0 57 -70 57q-91 0 -156 -55zM295 140l20 94q-59 -7 -101 -23q-68 -26 -68 -79q0 -42 48 -42
q57 0 101 50zM498 724l-21 -96h-285l21 96h285z" />
    <glyph glyph-name="Abreve" unicode="&#x102;" horiz-adv-x="789" 
d="M-50 0l510 768l110 16l165 -784h-152l-37 201h-299l-122 -201h-175zM482 586l-172 -275h220zM540 896q77 0 98 75h60q-13 -66 -56.5 -111t-113.5 -45q-109 0 -109 114q0 17 5 42h50q-1 -6 -1 -18q0 -57 67 -57z" />
    <glyph glyph-name="abreve" unicode="&#x103;" horiz-adv-x="519" 
d="M109 342l27 129q69 38 160 38q173 0 173 -155q0 -27 -7 -58l-60 -284l-140 -27l12 54q-79 -52 -157 -52q-55 0 -86 29t-31 81q0 121 165 173q72 24 165 33l2 13q3 12 3 24q0 57 -70 57q-91 0 -156 -55zM295 140l20 94q-59 -7 -101 -23q-68 -26 -68 -79q0 -42 48 -42
q57 0 101 50zM343 682q82 0 100 86h59q-36 -175 -174 -175q-108 0 -108 114q0 26 8 61h51q-3 -15 -3 -28q0 -58 67 -58z" />
    <glyph glyph-name="Aogonek" unicode="&#x104;" horiz-adv-x="789" 
d="M-50 0l510 768l110 16l165 -784q-83 -17 -122 -49.5t-39 -69.5q0 -13 9 -21.5t24 -8.5q44 0 80 33h2l-27 -97q-38 -24 -92 -24t-84 24t-30 67q0 38 29.5 71.5t97.5 74.5l-37 201h-299l-122 -201h-175zM482 586l-172 -275h220z" />
    <glyph glyph-name="aogonek" unicode="&#x105;" horiz-adv-x="519" 
d="M109 342l27 129q69 38 160 38q173 0 173 -155q0 -27 -7 -58l-63 -296q-142 -43 -142 -119q0 -13 9 -21.5t25 -8.5q45 0 79 33h2l-27 -97q-38 -24 -92 -24t-84 24t-30 67q0 39 29.5 73.5t97.5 74.5l8 37q-79 -52 -157 -52q-55 0 -86 29t-31 81q0 121 165 173q72 24 165 33
l2 13q3 12 3 24q0 57 -70 57q-91 0 -156 -55zM295 140l20 94q-59 -7 -101 -23q-68 -26 -68 -79q0 -42 48 -42q57 0 101 50z" />
    <glyph glyph-name="Cacute" unicode="&#x106;" horiz-adv-x="744" 
d="M784 716l-48 -164h-3q-64 94 -202 94q-129 0 -220 -92.5t-91 -219.5q0 -93 54 -150t148 -57q150 0 270 129h3l-58 -199q-106 -70 -241 -70q-151 0 -238 94t-87 253q0 88 38 171t101 144.5t150 98.5t181 37q155 0 243 -69zM727 964l-171 -149h-77l96 149h152z" />
    <glyph glyph-name="cacute" unicode="&#x107;" horiz-adv-x="503" 
d="M454 173l-52 -155q-60 -35 -145 -35q-105 0 -163.5 58t-58.5 159q0 131 89.5 221t234.5 90q94 0 148 -40l-41 -127q-42 45 -111 45q-79 0 -129 -50.5t-50 -127.5q0 -48 30.5 -77t87.5 -29q88 0 157 68h3zM553 770l-191 -179h-61l101 179h151z" />
    <glyph glyph-name="Ccircumflex" unicode="&#x108;" horiz-adv-x="744" 
d="M784 716l-48 -164h-3q-64 94 -202 94q-129 0 -220 -92.5t-91 -219.5q0 -93 54 -150t148 -57q150 0 270 129h3l-58 -199q-106 -70 -241 -70q-151 0 -238 94t-87 253q0 88 38 171t101 144.5t150 98.5t181 37q155 0 243 -69zM637 815l-73 80l-104 -80h-75l128 149h120
l65 -149h-61z" />
    <glyph glyph-name="ccircumflex" unicode="&#x109;" horiz-adv-x="503" 
d="M454 173l-52 -155q-60 -35 -145 -35q-105 0 -163.5 58t-58.5 159q0 131 89.5 221t234.5 90q94 0 148 -40l-41 -127q-42 45 -111 45q-79 0 -129 -50.5t-50 -127.5q0 -48 30.5 -77t87.5 -29q88 0 157 68h3zM451 591l-64 97l-104 -97h-71l143 179h89l66 -179h-59z" />
    <glyph glyph-name="Cdotaccent" unicode="&#x10a;" horiz-adv-x="744" 
d="M784 716l-48 -164h-3q-64 94 -202 94q-129 0 -220 -92.5t-91 -219.5q0 -93 54 -150t148 -57q150 0 270 129h3l-58 -199q-106 -70 -241 -70q-151 0 -238 94t-87 253q0 88 38 171t101 144.5t150 98.5t181 37q155 0 243 -69zM565 966q31 0 49.5 -18t18.5 -48
q0 -35 -23.5 -58t-58.5 -23q-32 0 -50 18t-18 48q0 35 23.5 58t58.5 23z" />
    <glyph glyph-name="cdotaccent" unicode="&#x10b;" horiz-adv-x="503" 
d="M454 173l-52 -155q-60 -35 -145 -35q-105 0 -163.5 58t-58.5 159q0 131 89.5 221t234.5 90q94 0 148 -40l-41 -127q-42 45 -111 45q-79 0 -129 -50.5t-50 -127.5q0 -48 30.5 -77t87.5 -29q88 0 157 68h3zM389 760q33 0 52.5 -19.5t19.5 -51.5q0 -35 -25.5 -60t-62.5 -25
q-34 0 -53 19t-19 50q0 37 25.5 62t62.5 25z" />
    <glyph glyph-name="Ccaron" unicode="&#x10c;" horiz-adv-x="744" 
d="M784 716l-48 -164h-3q-64 94 -202 94q-129 0 -220 -92.5t-91 -219.5q0 -93 54 -150t148 -57q150 0 270 129h3l-58 -199q-106 -70 -241 -70q-151 0 -238 94t-87 253q0 88 38 171t101 144.5t150 98.5t181 37q155 0 243 -69zM415 964h61l72 -80l105 80h75l-128 -149h-120z
" />
    <glyph glyph-name="ccaron" unicode="&#x10d;" horiz-adv-x="503" 
d="M454 173l-52 -155q-60 -35 -145 -35q-105 0 -163.5 58t-58.5 159q0 131 89.5 221t234.5 90q94 0 148 -40l-41 -127q-42 45 -111 45q-79 0 -129 -50.5t-50 -127.5q0 -48 30.5 -77t87.5 -29q88 0 157 68h3zM250 770h58l63 -98l105 98h73l-143 -179h-89z" />
    <glyph glyph-name="Dcaron" unicode="&#x10e;" horiz-adv-x="776" 
d="M257 0h-218l164 772h202q174 0 268.5 -89t94.5 -238q0 -201 -135 -323t-376 -122zM319 640l-107 -507h71q158 0 246 85t88 225q0 87 -56.5 142t-161.5 55h-80zM332 964h61l72 -80l105 80h75l-128 -149h-120z" />
    <glyph glyph-name="dcaron" unicode="&#x10f;" horiz-adv-x="621" 
d="M363 -16l13 47q-62 -48 -142 -48q-96 0 -148.5 60.5t-52.5 155.5q0 128 98 220t228 92q59 0 101 -23l56 265l143 27l-163 -768zM281 94q59 0 103 36l52 248q-29 23 -79 23q-77 0 -130 -56t-53 -141q0 -52 28 -81t79 -29zM811 781q4 -13 4 -35q0 -39 -22.5 -76.5
t-80.5 -91.5h-61q3 4 10.5 17t10 16.5t8.5 14t8 14.5l6.5 13t6 14t4.5 13.5t3.5 15t1.5 14.5t1 16q0 20 -3 33z" />
    <glyph glyph-name="Dcroat" unicode="&#x110;" horiz-adv-x="776" 
d="M257 0h-218l71 337h-62l24 111h62l69 324h202q174 0 268.5 -89t94.5 -238q0 -201 -135 -323t-376 -122zM319 640l-41 -192h153l-24 -111h-152l-43 -204h71q158 0 246 85t88 225q0 87 -56.5 142t-161.5 55h-80z" />
    <glyph glyph-name="dcroat" unicode="&#x111;" horiz-adv-x="621" 
d="M363 -16l13 47q-62 -48 -142 -48q-96 0 -148.5 60.5t-52.5 155.5q0 128 98 220t228 92q59 0 101 -23l22 107h-153l17 80h153l17 78l143 27l-23 -105h54l-18 -80h-53l-123 -583zM281 94q59 0 103 36l52 248q-29 23 -79 23q-77 0 -130 -56t-53 -141q0 -52 28 -81t79 -29z
" />
    <glyph glyph-name="Emacron" unicode="&#x112;" horiz-adv-x="591" 
d="M321 645l-40 -185h256l-26 -119h-255l-46 -214h301l-26 -127h-446l164 772h443l-26 -127h-299zM615 931l-19 -88h-316l19 88h316z" />
    <glyph glyph-name="emacron" unicode="&#x113;" horiz-adv-x="520" 
d="M312 219q-66 -17 -161 -30q5 -41 33 -65.5t80 -24.5q100 0 184 78h3l-42 -143q-68 -51 -164 -51q-107 0 -161.5 59t-54.5 149q0 76 44.5 150t120.5 122t159 48q73 0 112.5 -35t39.5 -93q0 -118 -193 -164zM317 411q-49 0 -98 -48t-64 -112q69 14 118 30q94 32 94 87
q0 43 -50 43zM525 724l-21 -96h-285l21 96h285z" />
    <glyph glyph-name="Ebreve" unicode="&#x114;" horiz-adv-x="591" 
d="M321 645l-40 -185h256l-26 -119h-255l-46 -214h301l-26 -127h-446l164 772h443l-26 -127h-299zM444 896q77 0 98 75h60q-13 -66 -56.5 -111t-113.5 -45q-109 0 -109 114q0 17 5 42h50q-1 -6 -1 -18q0 -57 67 -57z" />
    <glyph glyph-name="ebreve" unicode="&#x115;" horiz-adv-x="520" 
d="M312 219q-66 -17 -161 -30q5 -41 33 -65.5t80 -24.5q100 0 184 78h3l-42 -143q-68 -51 -164 -51q-107 0 -161.5 59t-54.5 149q0 76 44.5 150t120.5 122t159 48q73 0 112.5 -35t39.5 -93q0 -118 -193 -164zM317 411q-49 0 -98 -48t-64 -112q69 14 118 30q94 32 94 87
q0 43 -50 43zM370 682q82 0 100 86h59q-36 -175 -174 -175q-108 0 -108 114q0 26 8 61h51q-3 -15 -3 -28q0 -58 67 -58z" />
    <glyph glyph-name="Edotaccent" unicode="&#x116;" horiz-adv-x="591" 
d="M321 645l-40 -185h256l-26 -119h-255l-46 -214h301l-26 -127h-446l164 772h443l-26 -127h-299zM456 966q31 0 49.5 -18t18.5 -48q0 -35 -23.5 -58t-58.5 -23q-32 0 -50 18t-18 48q0 35 23.5 58t58.5 23z" />
    <glyph glyph-name="edotaccent" unicode="&#x117;" horiz-adv-x="520" 
d="M312 219q-66 -17 -161 -30q5 -41 33 -65.5t80 -24.5q100 0 184 78h3l-42 -143q-68 -51 -164 -51q-107 0 -161.5 59t-54.5 149q0 76 44.5 150t120.5 122t159 48q73 0 112.5 -35t39.5 -93q0 -118 -193 -164zM317 411q-49 0 -98 -48t-64 -112q69 14 118 30q94 32 94 87
q0 43 -50 43zM383 760q33 0 52.5 -19.5t19.5 -51.5q0 -35 -25.5 -60t-62.5 -25q-34 0 -53 19t-19 50q0 37 25.5 62t62.5 25z" />
    <glyph glyph-name="Eogonek" unicode="&#x118;" horiz-adv-x="591" 
d="M348 0h-309l164 772h443l-26 -127h-299l-40 -185h256l-26 -119h-255l-46 -214h301l-26 -127q-142 -43 -142 -119q0 -13 9 -21.5t25 -8.5q44 0 78 33h2l-27 -97q-38 -24 -92 -24t-84 24t-30 67q0 38 28.5 71.5t95.5 74.5z" />
    <glyph glyph-name="eogonek" unicode="&#x119;" horiz-adv-x="520" 
d="M141 -146q0 37 25.5 67t82.5 62h-4q-107 0 -161.5 59t-54.5 149q0 76 44.5 150t120.5 122t159 48q73 0 112.5 -35t39.5 -93q0 -118 -193 -164q-66 -17 -161 -30q5 -41 33 -65.5t80 -24.5q100 0 184 78h3l-42 -143q-85 -50 -117.5 -84.5t-32.5 -68.5q0 -13 9.5 -21.5
t25.5 -8.5q44 0 78 33h2l-27 -97q-38 -24 -92 -24t-84 24t-30 67zM317 411q-49 0 -98 -48t-64 -112q69 14 118 30q94 32 94 87q0 43 -50 43z" />
    <glyph glyph-name="Ecaron" unicode="&#x11a;" horiz-adv-x="591" 
d="M321 645l-40 -185h256l-26 -119h-255l-46 -214h301l-26 -127h-446l164 772h443l-26 -127h-299zM306 964h61l72 -80l105 80h75l-128 -149h-120z" />
    <glyph glyph-name="ecaron" unicode="&#x11b;" horiz-adv-x="520" 
d="M312 219q-66 -17 -161 -30q5 -41 33 -65.5t80 -24.5q100 0 184 78h3l-42 -143q-68 -51 -164 -51q-107 0 -161.5 59t-54.5 149q0 76 44.5 150t120.5 122t159 48q73 0 112.5 -35t39.5 -93q0 -118 -193 -164zM317 411q-49 0 -98 -48t-64 -112q69 14 118 30q94 32 94 87
q0 43 -50 43zM243 770h58l63 -98l105 98h73l-143 -179h-89z" />
    <glyph glyph-name="Gcircumflex" unicode="&#x11c;" horiz-adv-x="769" 
d="M739 366l-63 -291q-131 -88 -275 -88q-154 0 -243.5 90.5t-89.5 244.5q0 118 58.5 223.5t168.5 172.5t245 67q146 0 245 -65l-49 -159h-2q-29 42 -81 66.5t-119 24.5q-137 0 -226 -95t-89 -235q0 -95 52.5 -150t146.5 -55q74 0 125 38l45 211h151zM643 815l-73 80
l-104 -80h-75l128 149h120l65 -149h-61z" />
    <glyph glyph-name="gcircumflex" unicode="&#x11d;" horiz-adv-x="535" 
d="M292 509q73 0 124 -31q37 40 73 57.5t84 17.5l-24 -112q-39 0 -78 -20q16 -31 16 -68q0 -139 -201 -186q-19 -5 -53.5 -11.5t-44.5 -8.5q-34 -9 -34 -22q0 -14 41 -21q16 -3 67.5 -10t68.5 -10q110 -21 110 -114q0 -86 -88.5 -146.5t-205.5 -60.5q-85 0 -132.5 39.5
t-47.5 97.5q0 79 92 132q-53 26 -53 69q0 57 133 104q-35 17 -54.5 47t-19.5 66q0 76 68 133.5t159 57.5zM262 -14q-15 4 -60.5 11.5t-72.5 13.5q-56 -26 -56 -80q0 -27 24 -44t68 -17q57 0 97.5 23.5t40.5 54.5q0 29 -41 38zM183 314q0 -44 43 -67q8 -4 16 -4q9 0 21 4
q92 29 92 95q0 28 -18.5 47t-51.5 19q-41 0 -71.5 -27t-30.5 -67zM421 591l-64 97l-104 -97h-71l143 179h89l66 -179h-59z" />
    <glyph glyph-name="Gbreve" unicode="&#x11e;" horiz-adv-x="769" 
d="M739 366l-63 -291q-131 -88 -275 -88q-154 0 -243.5 90.5t-89.5 244.5q0 118 58.5 223.5t168.5 172.5t245 67q146 0 245 -65l-49 -159h-2q-29 42 -81 66.5t-119 24.5q-137 0 -226 -95t-89 -235q0 -95 52.5 -150t146.5 -55q74 0 125 38l45 211h151zM559 896q77 0 98 75h60
q-13 -66 -56.5 -111t-113.5 -45q-109 0 -109 114q0 17 5 42h50q-1 -6 -1 -18q0 -57 67 -57z" />
    <glyph glyph-name="gbreve" unicode="&#x11f;" horiz-adv-x="535" 
d="M292 509q73 0 124 -31q37 40 73 57.5t84 17.5l-24 -112q-39 0 -78 -20q16 -31 16 -68q0 -139 -201 -186q-19 -5 -53.5 -11.5t-44.5 -8.5q-34 -9 -34 -22q0 -14 41 -21q16 -3 67.5 -10t68.5 -10q110 -21 110 -114q0 -86 -88.5 -146.5t-205.5 -60.5q-85 0 -132.5 39.5
t-47.5 97.5q0 79 92 132q-53 26 -53 69q0 57 133 104q-35 17 -54.5 47t-19.5 66q0 76 68 133.5t159 57.5zM262 -14q-15 4 -60.5 11.5t-72.5 13.5q-56 -26 -56 -80q0 -27 24 -44t68 -17q57 0 97.5 23.5t40.5 54.5q0 29 -41 38zM183 314q0 -44 43 -67q8 -4 16 -4q9 0 21 4
q92 29 92 95q0 28 -18.5 47t-51.5 19q-41 0 -71.5 -27t-30.5 -67zM347 682q82 0 100 86h59q-36 -175 -174 -175q-108 0 -108 114q0 26 8 61h51q-3 -15 -3 -28q0 -58 67 -58z" />
    <glyph glyph-name="Gdotaccent" unicode="&#x120;" horiz-adv-x="769" 
d="M739 366l-63 -291q-131 -88 -275 -88q-154 0 -243.5 90.5t-89.5 244.5q0 118 58.5 223.5t168.5 172.5t245 67q146 0 245 -65l-49 -159h-2q-29 42 -81 66.5t-119 24.5q-137 0 -226 -95t-89 -235q0 -95 52.5 -150t146.5 -55q74 0 125 38l45 211h151zM571 966q31 0 49.5 -18
t18.5 -48q0 -35 -23.5 -58t-58.5 -23q-32 0 -50 18t-18 48q0 35 23.5 58t58.5 23z" />
    <glyph glyph-name="gdotaccent" unicode="&#x121;" horiz-adv-x="535" 
d="M292 509q73 0 124 -31q37 40 73 57.5t84 17.5l-24 -112q-39 0 -78 -20q16 -31 16 -68q0 -139 -201 -186q-19 -5 -53.5 -11.5t-44.5 -8.5q-34 -9 -34 -22q0 -14 41 -21q16 -3 67.5 -10t68.5 -10q110 -21 110 -114q0 -86 -88.5 -146.5t-205.5 -60.5q-85 0 -132.5 39.5
t-47.5 97.5q0 79 92 132q-53 26 -53 69q0 57 133 104q-35 17 -54.5 47t-19.5 66q0 76 68 133.5t159 57.5zM262 -14q-15 4 -60.5 11.5t-72.5 13.5q-56 -26 -56 -80q0 -27 24 -44t68 -17q57 0 97.5 23.5t40.5 54.5q0 29 -41 38zM183 314q0 -44 43 -67q8 -4 16 -4q9 0 21 4
q92 29 92 95q0 28 -18.5 47t-51.5 19q-41 0 -71.5 -27t-30.5 -67zM359 760q33 0 52.5 -19.5t19.5 -51.5q0 -35 -25.5 -60t-62.5 -25q-34 0 -53 19t-19 50q0 37 25.5 62t62.5 25z" />
    <glyph glyph-name="Gcommaaccent" unicode="&#x122;" horiz-adv-x="772" 
d="M739 366l-63 -291q-131 -88 -275 -88q-154 0 -243.5 90.5t-89.5 244.5q0 118 58.5 223.5t168.5 172.5t245 67q146 0 245 -65l-49 -159h-2q-29 42 -81 66.5t-119 24.5q-137 0 -226 -95t-89 -235q0 -95 52.5 -150t146.5 -55q74 0 125 38l45 211h151zM438 -54q5 -17 5 -39
q0 -37 -22.5 -67.5t-90.5 -76.5h-75q46 44 63.5 70.5t17.5 56.5q0 18 -7 35z" />
    <glyph glyph-name="gcommaaccent" unicode="&#x123;" horiz-adv-x="535" 
d="M292 509q73 0 124 -31q37 40 73 57.5t84 17.5l-24 -112q-39 0 -78 -20q16 -31 16 -68q0 -139 -201 -186q-19 -5 -53.5 -11.5t-44.5 -8.5q-34 -9 -34 -22q0 -14 41 -21q16 -3 67.5 -10t68.5 -10q110 -21 110 -114q0 -86 -88.5 -146.5t-205.5 -60.5q-85 0 -132.5 39.5
t-47.5 97.5q0 79 92 132q-53 26 -53 69q0 57 133 104q-35 17 -54.5 47t-19.5 66q0 76 68 133.5t159 57.5zM262 -14q-15 4 -60.5 11.5t-72.5 13.5q-56 -26 -56 -80q0 -27 24 -44t68 -17q57 0 97.5 23.5t40.5 54.5q0 29 -41 38zM183 314q0 -44 43 -67q8 -4 16 -4q9 0 21 4
q92 29 92 95q0 28 -18.5 47t-51.5 19q-41 0 -71.5 -27t-30.5 -67zM265 586q-6 15 -6 39q0 37 22.5 67.5t90.5 76.5h75q-45 -44 -62.5 -70.5t-17.5 -56.5q0 -21 7 -35z" />
    <glyph glyph-name="Hcircumflex" unicode="&#x124;" horiz-adv-x="807" 
d="M183 0h-144l164 772h144l-64 -305h336l65 305h144l-164 -772h-144l71 335h-337zM621 815l-73 80l-104 -80h-75l128 149h120l65 -149h-61z" />
    <glyph glyph-name="hcircumflex" unicode="&#x125;" horiz-adv-x="607" 
d="M24 0l160 753l143 27l-74 -348q87 76 174 76q64 0 99 -35.5t35 -99.5q0 -24 -5 -52l-69 -321h-137l62 292q4 17 4 33q0 58 -61 58q-52 0 -92 -38q-37 -32 -47 -83l-55 -262h-137zM508 815l-73 80l-104 -80h-75l128 149h120l65 -149h-61z" />
    <glyph glyph-name="Hbar" unicode="&#x126;" horiz-adv-x="807" 
d="M183 0h-144l125 590h-63l18 80h62l22 102h144l-22 -102h337l22 102h144l-22 -102h63l-18 -80h-62l-125 -590h-144l71 335h-337zM283 467h336l26 123h-336z" />
    <glyph glyph-name="hbar" unicode="&#x127;" horiz-adv-x="607" 
d="M24 0l126 595h-52l18 80h51l17 78l143 27l-23 -105h156l-18 -80h-155l-34 -163q87 76 174 76q64 0 99 -35.5t35 -99.5q0 -24 -5 -52l-69 -321h-137l62 292q4 17 4 33q0 58 -61 58q-52 0 -92 -38q-37 -32 -47 -83l-55 -262h-137z" />
    <glyph glyph-name="Itilde" unicode="&#x128;" horiz-adv-x="326" 
d="M183 0h-144l164 772h144zM230 857q-23 0 -42 -16t-25 -38l-49 11q20 64 55 101.5t74 37.5q25 0 67.5 -17t60.5 -17q23 0 41 15.5t26 38.5l49 -11q-21 -64 -56 -101.5t-73 -37.5q-26 0 -68.5 17t-59.5 17z" />
    <glyph glyph-name="itilde" unicode="&#x129;" horiz-adv-x="288" 
d="M180 636q-22 0 -40.5 -15.5t-26.5 -38.5l-50 12q21 64 57.5 101.5t76.5 37.5q19 0 50.5 -17t44.5 -17q22 0 40 15.5t27 38.5l49 -12q-21 -64 -57.5 -101.5t-76.5 -37.5q-18 0 -49.5 17t-44.5 17zM126 481l143 28l-108 -509h-137z" />
    <glyph glyph-name="Imacron" unicode="&#x12a;" horiz-adv-x="326" 
d="M183 0h-144l164 772h144zM467 931l-19 -88h-316l19 88h316z" />
    <glyph glyph-name="imacron" unicode="&#x12b;" horiz-adv-x="288" 
d="M126 481l143 28l-108 -509h-137zM388 724l-21 -96h-285l21 96h285z" />
    <glyph glyph-name="Ibreve" unicode="&#x12c;" horiz-adv-x="326" 
d="M183 0h-144l164 772h144zM296 896q77 0 98 75h60q-13 -66 -56.5 -111t-113.5 -45q-109 0 -109 114q0 17 5 42h50q-1 -6 -1 -18q0 -57 67 -57z" />
    <glyph glyph-name="ibreve" unicode="&#x12d;" horiz-adv-x="288" 
d="M126 481l143 28l-108 -509h-137zM233 682q82 0 100 86h59q-36 -175 -174 -175q-108 0 -108 114q0 26 8 61h51q-3 -15 -3 -28q0 -58 67 -58z" />
    <glyph glyph-name="Iogonek" unicode="&#x12e;" horiz-adv-x="326" 
d="M183 0q-132 -43 -132 -119q0 -13 9 -21.5t25 -8.5q45 0 79 33h2l-27 -97q-38 -24 -92 -24t-84 24t-30 67q0 38 24.5 72t81.5 74l164 772h144z" />
    <glyph glyph-name="iogonek" unicode="&#x12f;" horiz-adv-x="288" 
d="M126 481l143 28l-108 -509q-63 -22 -93 -53.5t-30 -65.5q0 -13 9 -21.5t25 -8.5q45 0 79 33h2l-28 -97q-37 -24 -91 -24t-84 24t-30 67q0 38 24 72t80 74zM244 751q33 0 52 -19.5t19 -51.5q0 -35 -25.5 -60t-61.5 -25q-33 0 -52 19t-19 50q0 37 25.5 62t61.5 25z" />
    <glyph glyph-name="Idotaccent" unicode="&#x130;" horiz-adv-x="326" 
d="M183 0h-144l164 772h144zM308 966q31 0 49.5 -18t18.5 -48q0 -35 -23.5 -58t-58.5 -23q-32 0 -50 18t-18 48q0 35 23.5 58t58.5 23z" />
    <glyph glyph-name="dotlessi" unicode="&#x131;" horiz-adv-x="288" 
d="M126 481l143 28l-108 -509h-137z" />
    <glyph glyph-name="IJ" unicode="&#x132;" horiz-adv-x="627" 
d="M183 0h-144l164 772h144zM504 772h145l-137 -642q-27 -128 -61.5 -202t-88.5 -121l-201 -44l-3 11q86 57 132.5 133t77.5 226z" />
    <glyph glyph-name="ij" unicode="&#x133;" horiz-adv-x="538" 
d="M86 481l143 28l-108 -509h-137zM204 751q33 0 52 -19.5t19 -51.5q0 -35 -25.5 -60t-61.5 -25q-33 0 -52 19t-19 50q0 37 25.5 62t61.5 25zM336 481l143 28l-110 -515q-30 -138 -87 -190l-188 -41l-3 15q109 60 140 209zM453 751q32 0 51 -19.5t19 -51.5q0 -35 -25 -60
t-62 -25q-33 0 -51.5 19t-18.5 50q0 37 25 62t62 25z" />
    <glyph glyph-name="Jcircumflex" unicode="&#x134;" horiz-adv-x="326" 
d="M203 772h145l-137 -642q-27 -128 -61.5 -202t-88.5 -121l-201 -44l-3 11q86 57 132.5 133t77.5 226zM381 815l-73 80l-104 -80h-75l128 149h120l65 -149h-61z" />
    <glyph glyph-name="jcircumflex" unicode="&#x135;" horiz-adv-x="288" 
d="M126 481l143 28l-110 -515q-30 -138 -87 -190l-188 -41l-3 15q109 60 140 209zM307 591l-64 97l-104 -97h-71l143 179h89l66 -179h-59z" />
    <glyph glyph-name="Kcommaaccent" unicode="&#x136;" horiz-adv-x="756" 
d="M183 0h-144l164 772h144l-75 -354l378 354h192l-427 -387l290 -385h-180l-264 369zM370 -54q5 -17 5 -39q0 -37 -22.5 -67.5t-90.5 -76.5h-75q46 44 63.5 70.5t17.5 56.5q0 18 -7 35z" />
    <glyph glyph-name="kcommaaccent" unicode="&#x137;" horiz-adv-x="588" 
d="M327 780l-106 -498l224 212h173l-266 -236l205 -258h-168l-175 249l-53 -249h-137l160 752zM288 -54q5 -17 5 -39q0 -37 -22.5 -67.5t-90.5 -76.5h-75q46 44 63.5 70.5t17.5 56.5q0 18 -7 35z" />
    <glyph glyph-name="kgreenlandic" unicode="&#x138;" horiz-adv-x="588" 
d="M266 494l-45 -212l224 212h173l-266 -236l205 -258h-168l-175 249l-53 -249h-137l105 494h137z" />
    <glyph glyph-name="Lacute" unicode="&#x139;" horiz-adv-x="608" 
d="M39 0l164 772h144l-135 -639h356l-28 -133h-501zM493 964l-171 -149h-77l96 149h152z" />
    <glyph glyph-name="lacute" unicode="&#x13a;" horiz-adv-x="288" 
d="M327 780l-166 -780h-137l160 752zM447 964l-171 -149h-77l96 149h152z" />
    <glyph glyph-name="Lcommaaccent" unicode="&#x13b;" horiz-adv-x="608" 
d="M39 0l164 772h144l-135 -639h356l-28 -133h-501zM326 -54q5 -17 5 -39q0 -37 -22.5 -67.5t-90.5 -76.5h-75q46 44 63.5 70.5t17.5 56.5q0 18 -7 35z" />
    <glyph glyph-name="lcommaaccent" unicode="&#x13c;" horiz-adv-x="288" 
d="M327 780l-166 -780h-137l160 752zM129 -54q5 -17 5 -39q0 -37 -22.5 -67.5t-90.5 -76.5h-75q46 44 63.5 70.5t17.5 56.5q0 18 -7 35z" />
    <glyph glyph-name="Lcaron" unicode="&#x13d;" horiz-adv-x="608" 
d="M39 0l164 772h144l-135 -639h356l-28 -133h-501zM522 781q4 -13 4 -35q0 -39 -22.5 -76.5t-80.5 -91.5h-61q3 4 10.5 17t10 16.5t8.5 14t8 14.5l6.5 13t6 14t4.5 13.5t3.5 15t1.5 14.5t1 16q0 20 -3 33z" />
    <glyph glyph-name="lcaron" unicode="&#x13e;" horiz-adv-x="288" 
d="M327 780l-166 -780h-137l160 752zM479 781q4 -13 4 -35q0 -39 -22.5 -76.5t-80.5 -91.5h-61q3 4 10.5 17t10 16.5t8.5 14t8 14.5l6.5 13t6 14t4.5 13.5t3.5 15t1.5 14.5t1 16q0 20 -3 33z" />
    <glyph glyph-name="Ldot" unicode="&#x13f;" horiz-adv-x="608" 
d="M39 0l164 772h144l-135 -639h356l-28 -133h-501zM522 555q31 0 49.5 -18t18.5 -48q0 -35 -23.5 -58t-58.5 -23q-32 0 -50 18t-18 48q0 35 23.5 58t58.5 23z" />
    <glyph glyph-name="ldot" unicode="&#x140;" horiz-adv-x="424" 
d="M327 780l-166 -780h-137l160 752zM394 483q33 0 52.5 -19.5t19.5 -51.5q0 -35 -25.5 -60t-62.5 -25q-34 0 -53 19t-19 50q0 37 25.5 62t62.5 25z" />
    <glyph glyph-name="Lslash" unicode="&#x141;" horiz-adv-x="608" 
d="M39 0l62 294l-71 -41l24 111l71 41l78 367h144l-58 -273l168 97l-24 -111l-167 -96l-54 -256h356l-28 -133h-501z" />
    <glyph glyph-name="lslash" unicode="&#x142;" horiz-adv-x="316" 
d="M341 780l-62 -292l70 40l-23 -110l-71 -41l-80 -377h-137l61 287l-73 -42l24 111l72 42l76 354z" />
    <glyph glyph-name="Nacute" unicode="&#x143;" horiz-adv-x="886" 
d="M767 772h141l-164 -772h-117l-331 546l-116 -546h-141l164 772h117l331 -545zM750 964l-171 -149h-77l96 149h152z" />
    <glyph glyph-name="nacute" unicode="&#x144;" horiz-adv-x="607" 
d="M24 0l105 494h137l-13 -62q87 76 174 76q64 0 99 -36t35 -99q0 -24 -5 -52l-69 -321h-137l62 292q4 17 4 33q0 58 -61 58q-52 0 -92 -38q-37 -32 -47 -83l-55 -262h-137zM568 770l-191 -179h-61l101 179h151z" />
    <glyph glyph-name="Ncommaaccent" unicode="&#x145;" horiz-adv-x="886" 
d="M767 772h141l-164 -772h-117l-331 546l-116 -546h-141l164 772h117l331 -545zM428 -54q5 -17 5 -39q0 -37 -22.5 -67.5t-90.5 -76.5h-75q46 44 63.5 70.5t17.5 56.5q0 18 -7 35z" />
    <glyph glyph-name="ncommaaccent" unicode="&#x146;" horiz-adv-x="607" 
d="M24 0l105 494h137l-13 -62q87 76 174 76q64 0 99 -36t35 -99q0 -24 -5 -52l-69 -321h-137l62 292q4 17 4 33q0 58 -61 58q-52 0 -92 -38q-37 -32 -47 -83l-55 -262h-137zM292 -54q5 -17 5 -39q0 -37 -22.5 -67.5t-90.5 -76.5h-75q46 44 63.5 70.5t17.5 56.5q0 18 -7 35z
" />
    <glyph glyph-name="Ncaron" unicode="&#x147;" horiz-adv-x="886" 
d="M767 772h141l-164 -772h-117l-331 546l-116 -546h-141l164 772h117l331 -545zM438 964h61l72 -80l105 80h75l-128 -149h-120z" />
    <glyph glyph-name="ncaron" unicode="&#x148;" horiz-adv-x="607" 
d="M24 0l105 494h137l-13 -62q87 76 174 76q64 0 99 -36t35 -99q0 -24 -5 -52l-69 -321h-137l62 292q4 17 4 33q0 58 -61 58q-52 0 -92 -38q-37 -32 -47 -83l-55 -262h-137zM264 770h58l63 -98l105 98h73l-143 -179h-89z" />
    <glyph glyph-name="napostrophe" unicode="&#x149;" horiz-adv-x="607" 
d="M24 0l105 494h137l-13 -62q87 76 174 76q64 0 99 -36t35 -99q0 -24 -5 -52l-69 -321h-137l62 292q4 17 4 33q0 58 -61 58q-52 0 -92 -38q-37 -32 -47 -83l-55 -262h-137zM256 781q4 -13 4 -35q0 -39 -22.5 -76.5t-80.5 -91.5h-61q3 4 10.5 17t10 16.5t8.5 14t8 14.5
l6.5 13t6 14t4.5 13.5t3.5 15t1.5 14.5t1 16q0 20 -3 33z" />
    <glyph glyph-name="Eng" unicode="&#x14a;" horiz-adv-x="886" 
d="M767 772h141l-172 -806q-20 -95 -82 -149t-151 -54q-58 0 -99 22l12 136q24 -31 77 -31q38 0 65.5 25.5t38.5 74.5l9 43l-310 513l-116 -546h-141l164 772h117l331 -545z" />
    <glyph glyph-name="eng" unicode="&#x14b;" horiz-adv-x="607" 
d="M24 0l105 494h137l-13 -62q87 76 174 76q64 0 99 -36t35 -99q0 -24 -5 -52l-77 -360q-21 -93 -78.5 -145.5t-141.5 -52.5q-44 0 -68 15l10 105q16 -16 49 -16t57.5 25t34.5 70l70 330q4 17 4 33q0 58 -61 58q-52 0 -92 -38q-37 -32 -47 -83l-55 -262h-137z" />
    <glyph glyph-name="Omacron" unicode="&#x14c;" horiz-adv-x="854" 
d="M402 118q122 0 207 101.5t85 224.5q0 94 -49 152t-133 58q-119 0 -206.5 -92.5t-87.5 -221.5q0 -98 50 -160t134 -62zM842 456q0 -120 -57 -227.5t-161.5 -175.5t-229.5 -68q-149 0 -237 94.5t-88 246.5q0 126 61.5 232.5t165 167.5t223.5 61q149 0 236 -90.5t87 -240.5z
M716 931l-19 -88h-316l19 88h316z" />
    <glyph glyph-name="omacron" unicode="&#x14d;" horiz-adv-x="606" 
d="M276 94q69 0 111.5 60t42.5 134q0 53 -25.5 83.5t-72.5 30.5q-66 0 -109.5 -51t-43.5 -132q0 -57 25 -91t72 -34zM259 -17q-102 0 -162.5 60t-60.5 164q0 134 92 219.5t221 85.5q102 0 162.5 -56.5t60.5 -154.5q0 -129 -90 -223.5t-223 -94.5zM547 724l-21 -96h-285
l21 96h285z" />
    <glyph glyph-name="Obreve" unicode="&#x14e;" horiz-adv-x="854" 
d="M402 118q122 0 207 101.5t85 224.5q0 94 -49 152t-133 58q-119 0 -206.5 -92.5t-87.5 -221.5q0 -98 50 -160t134 -62zM842 456q0 -120 -57 -227.5t-161.5 -175.5t-229.5 -68q-149 0 -237 94.5t-88 246.5q0 126 61.5 232.5t165 167.5t223.5 61q149 0 236 -90.5t87 -240.5z
M545 896q77 0 98 75h60q-13 -66 -56.5 -111t-113.5 -45q-109 0 -109 114q0 17 5 42h50q-1 -6 -1 -18q0 -57 67 -57z" />
    <glyph glyph-name="obreve" unicode="&#x14f;" horiz-adv-x="606" 
d="M276 94q69 0 111.5 60t42.5 134q0 53 -25.5 83.5t-72.5 30.5q-66 0 -109.5 -51t-43.5 -132q0 -57 25 -91t72 -34zM259 -17q-102 0 -162.5 60t-60.5 164q0 134 92 219.5t221 85.5q102 0 162.5 -56.5t60.5 -154.5q0 -129 -90 -223.5t-223 -94.5zM393 682q82 0 100 86h59
q-36 -175 -174 -175q-108 0 -108 114q0 26 8 61h51q-3 -15 -3 -28q0 -58 67 -58z" />
    <glyph glyph-name="Ohungarumlaut" unicode="&#x150;" horiz-adv-x="854" 
d="M402 118q122 0 207 101.5t85 224.5q0 94 -49 152t-133 58q-119 0 -206.5 -92.5t-87.5 -221.5q0 -98 50 -160t134 -62zM842 456q0 -120 -57 -227.5t-161.5 -175.5t-229.5 -68q-149 0 -237 94.5t-88 246.5q0 126 61.5 232.5t165 167.5t223.5 61q149 0 236 -90.5t87 -240.5z
M510 964h135l-167 -149h-70zM666 964h136l-168 -149h-70z" />
    <glyph glyph-name="ohungarumlaut" unicode="&#x151;" horiz-adv-x="606" 
d="M276 94q69 0 111.5 60t42.5 134q0 53 -25.5 83.5t-72.5 30.5q-66 0 -109.5 -51t-43.5 -132q0 -57 25 -91t72 -34zM259 -17q-102 0 -162.5 60t-60.5 164q0 134 92 219.5t221 85.5q102 0 162.5 -56.5t60.5 -154.5q0 -129 -90 -223.5t-223 -94.5zM346 770h132l-159 -179h-60
zM501 770h133l-159 -179h-60z" />
    <glyph glyph-name="OE" unicode="&#x152;" horiz-adv-x="1002" 
d="M733 644l-38 -184h251l-26 -119h-251l-46 -214h298l-27 -127h-497q-148 0 -238 92t-90 238q0 122 64 224.5t169 160t224 57.5h532l-27 -128h-298zM217 335q0 -92 53 -150t138 -58h70l110 518h-70q-120 0 -210.5 -89.5t-90.5 -220.5z" />
    <glyph glyph-name="oe" unicode="&#x153;" horiz-adv-x="866" 
d="M320 511q61 0 106 -26.5t67 -75.5q93 102 207 102q72 0 111 -33.5t39 -87.5q0 -60 -48.5 -104.5t-140.5 -68.5q-75 -20 -159 -32q12 -87 105 -87q100 0 184 79h3l-42 -144q-65 -50 -162 -50q-122 0 -169 86q-74 -86 -178 -86q-94 0 -150.5 54.5t-56.5 155.5
q0 124 79.5 221t204.5 97zM256 94q60 0 103.5 61t43.5 142q0 48 -21 76t-61 28q-61 0 -103.5 -64.5t-42.5 -140.5q0 -102 81 -102zM663 412q-52 0 -96 -50t-60 -111q60 11 114 29q91 31 91 91q0 41 -49 41z" />
    <glyph glyph-name="Racute" unicode="&#x154;" horiz-adv-x="691" 
d="M38 0l164 772h207q123 0 190 -53t67 -149q0 -89 -59.5 -153.5t-162.5 -94.5l195 -322h-173l-170 301h-50l-64 -301h-144zM320 648l-53 -251h13q115 0 174.5 41t59.5 114q0 96 -130 96h-64zM620 964l-171 -149h-77l96 149h152z" />
    <glyph glyph-name="racute" unicode="&#x155;" horiz-adv-x="401" 
d="M445 501l-31 -143q-27 6 -57 6q-120 0 -137 -87l-59 -277h-137l105 494h137l-14 -67q75 77 164 77q17 0 29 -3zM489 770l-191 -179h-61l101 179h151z" />
    <glyph glyph-name="Rcommaaccent" unicode="&#x156;" horiz-adv-x="691" 
d="M38 0l164 772h207q123 0 190 -53t67 -149q0 -89 -59.5 -153.5t-162.5 -94.5l195 -322h-173l-170 301h-50l-64 -301h-144zM320 648l-53 -251h13q115 0 174.5 41t59.5 114q0 96 -130 96h-64zM339 -54q5 -17 5 -39q0 -37 -22.5 -67.5t-90.5 -76.5h-75q46 44 63.5 70.5
t17.5 56.5q0 18 -7 35z" />
    <glyph glyph-name="rcommaaccent" unicode="&#x157;" horiz-adv-x="401" 
d="M445 501l-31 -143q-27 6 -57 6q-120 0 -137 -87l-59 -277h-137l105 494h137l-14 -67q75 77 164 77q17 0 29 -3zM129 -54q5 -17 5 -39q0 -37 -22.5 -67.5t-90.5 -76.5h-75q46 44 63.5 70.5t17.5 56.5q0 18 -7 35z" />
    <glyph glyph-name="Rcaron" unicode="&#x158;" horiz-adv-x="691" 
d="M38 0l164 772h207q123 0 190 -53t67 -149q0 -89 -59.5 -153.5t-162.5 -94.5l195 -322h-173l-170 301h-50l-64 -301h-144zM320 648l-53 -251h13q115 0 174.5 41t59.5 114q0 96 -130 96h-64zM308 964h61l72 -80l105 80h75l-128 -149h-120z" />
    <glyph glyph-name="rcaron" unicode="&#x159;" horiz-adv-x="401" 
d="M445 501l-31 -143q-27 6 -57 6q-120 0 -137 -87l-59 -277h-137l105 494h137l-14 -67q75 77 164 77q17 0 29 -3zM186 770h58l63 -98l105 98h73l-143 -179h-89z" />
    <glyph glyph-name="Sacute" unicode="&#x15a;" horiz-adv-x="558" 
d="M50 200q85 -85 182 -85q60 0 94.5 29.5t34.5 78.5q0 35 -25.5 67t-88.5 74q-67 45 -94.5 89.5t-27.5 105.5q0 99 73.5 163.5t181.5 64.5q105 0 191 -43l-32 -150q-88 66 -158 66q-49 0 -78.5 -26.5t-29.5 -66.5q0 -30 23 -56.5t91 -71.5t97.5 -93.5t29.5 -115.5
q0 -110 -85 -178t-213 -68q-122 0 -191 49l22 167h3zM572 964l-171 -149h-77l96 149h152z" />
    <glyph glyph-name="sacute" unicode="&#x15b;" horiz-adv-x="453" 
d="M7 40l33 121q26 -32 67.5 -52t84.5 -20q36 0 55 13.5t19 35.5t-25 37q-13 8 -49 23.5t-53 26.5q-70 43 -70 120q0 71 55.5 118.5t140.5 47.5q104 0 168 -47l-51 -117q-20 25 -56 41t-68 16q-63 0 -63 -46q0 -20 25 -35q12 -7 47.5 -23t50.5 -24q75 -45 75 -122
q0 -76 -58 -123.5t-153 -47.5q-113 0 -175 57zM489 770l-191 -179h-61l101 179h151z" />
    <glyph glyph-name="Scircumflex" unicode="&#x15c;" horiz-adv-x="558" 
d="M50 200q85 -85 182 -85q60 0 94.5 29.5t34.5 78.5q0 35 -25.5 67t-88.5 74q-67 45 -94.5 89.5t-27.5 105.5q0 99 73.5 163.5t181.5 64.5q105 0 191 -43l-32 -150q-88 66 -158 66q-49 0 -78.5 -26.5t-29.5 -66.5q0 -30 23 -56.5t91 -71.5t97.5 -93.5t29.5 -115.5
q0 -110 -85 -178t-213 -68q-122 0 -191 49l22 167h3zM483 815l-73 80l-104 -80h-75l128 149h120l65 -149h-61z" />
    <glyph glyph-name="scircumflex" unicode="&#x15d;" horiz-adv-x="453" 
d="M7 40l33 121q26 -32 67.5 -52t84.5 -20q36 0 55 13.5t19 35.5t-25 37q-13 8 -49 23.5t-53 26.5q-70 43 -70 120q0 71 55.5 118.5t140.5 47.5q104 0 168 -47l-51 -117q-20 25 -56 41t-68 16q-63 0 -63 -46q0 -20 25 -35q12 -7 47.5 -23t50.5 -24q75 -45 75 -122
q0 -76 -58 -123.5t-153 -47.5q-113 0 -175 57zM386 591l-64 97l-104 -97h-71l143 179h89l66 -179h-59z" />
    <glyph glyph-name="Scedilla" unicode="&#x15e;" horiz-adv-x="558" 
d="M50 200q85 -85 182 -85q60 0 94.5 29.5t34.5 78.5q0 35 -25.5 67t-88.5 74q-67 45 -94.5 89.5t-27.5 105.5q0 99 73.5 163.5t181.5 64.5q105 0 191 -43l-32 -150q-88 66 -158 66q-49 0 -78.5 -26.5t-29.5 -66.5q0 -30 23 -56.5t91 -71.5t97.5 -93.5t29.5 -115.5
q0 -106 -79.5 -173.5t-200.5 -72.5l-26 -37q6 2 11 2q38 0 59.5 -21t21.5 -55q0 -42 -41 -70.5t-99 -28.5q-59 0 -85 26l18 59q19 -25 67 -25q25 0 38 9.5t13 24.5q0 30 -47 30q-29 0 -48 -7l-1 1l64 94q-98 6 -154 47l22 167h3z" />
    <glyph glyph-name="scedilla" unicode="&#x15f;" horiz-adv-x="453" 
d="M7 40l33 121q26 -32 67.5 -52t84.5 -20q36 0 55 13.5t19 35.5t-25 37q-13 8 -49 23.5t-53 26.5q-70 43 -70 120q0 71 55.5 118.5t140.5 47.5q104 0 168 -47l-51 -117q-20 25 -56 41t-68 16q-63 0 -63 -46q0 -20 25 -35q12 -7 47.5 -23t50.5 -24q75 -45 75 -122
q0 -76 -57.5 -123t-152.5 -48l-26 -36q6 2 11 2q38 0 59.5 -21t21.5 -55q0 -42 -41 -70.5t-99 -28.5q-59 0 -85 26l18 59q19 -25 67 -25q25 0 38 9.5t13 24.5q0 30 -47 30q-29 0 -48 -7l-1 1l65 95q-79 12 -122 53z" />
    <glyph glyph-name="Scaron" unicode="&#x160;" horiz-adv-x="558" 
d="M50 200q85 -85 182 -85q60 0 94.5 29.5t34.5 78.5q0 35 -25.5 67t-88.5 74q-67 45 -94.5 89.5t-27.5 105.5q0 99 73.5 163.5t181.5 64.5q105 0 191 -43l-32 -150q-88 66 -158 66q-49 0 -78.5 -26.5t-29.5 -66.5q0 -30 23 -56.5t91 -71.5t97.5 -93.5t29.5 -115.5
q0 -110 -85 -178t-213 -68q-122 0 -191 49l22 167h3zM261 964h61l72 -80l105 80h75l-128 -149h-120z" />
    <glyph glyph-name="scaron" unicode="&#x161;" horiz-adv-x="453" 
d="M7 40l33 121q26 -32 67.5 -52t84.5 -20q36 0 55 13.5t19 35.5t-25 37q-13 8 -49 23.5t-53 26.5q-70 43 -70 120q0 71 55.5 118.5t140.5 47.5q104 0 168 -47l-51 -117q-20 25 -56 41t-68 16q-63 0 -63 -46q0 -20 25 -35q12 -7 47.5 -23t50.5 -24q75 -45 75 -122
q0 -76 -58 -123.5t-153 -47.5q-113 0 -175 57zM185 770h58l63 -98l105 98h73l-143 -179h-89z" />
    <glyph glyph-name="uni0162" unicode="&#x162;" horiz-adv-x="689" 
d="M365 0h-145l136 639h-255l29 133h653l-28 -133h-255zM331 -54q5 -17 5 -39q0 -37 -22.5 -67.5t-90.5 -76.5h-75q46 44 63.5 70.5t17.5 56.5q0 18 -7 35z" />
    <glyph glyph-name="uni0163" unicode="&#x163;" horiz-adv-x="391" 
d="M69 494h91l29 138l142 26l-34 -164h132l-24 -113h-133l-45 -213q-9 -44 -9 -72q0 -30 12.5 -49t41.5 -36l-3 -9l-139 -15q-52 28 -52 99q0 26 8 60l50 235h-91zM194 -54q5 -17 5 -39q0 -37 -22.5 -67.5t-90.5 -76.5h-75q46 44 63.5 70.5t17.5 56.5q0 18 -7 35z" />
    <glyph glyph-name="Tcaron" unicode="&#x164;" horiz-adv-x="689" 
d="M365 0h-145l136 639h-255l29 133h653l-28 -133h-255zM339 964h61l72 -80l105 80h75l-128 -149h-120z" />
    <glyph glyph-name="tcaron" unicode="&#x165;" horiz-adv-x="391" 
d="M69 494h91l29 138l142 26l-34 -164h132l-24 -113h-133l-45 -213q-9 -44 -9 -72q0 -30 12.5 -49t41.5 -36l-3 -9l-139 -15q-52 28 -52 99q0 26 8 60l50 235h-91zM523 781q4 -13 4 -35q0 -39 -22.5 -76.5t-80.5 -91.5h-61q3 4 10.5 17t10 16.5t8.5 14t8 14.5l6.5 13t6 14
t4.5 13.5t3.5 15t1.5 14.5t1 16q0 20 -3 33z" />
    <glyph glyph-name="Tbar" unicode="&#x166;" horiz-adv-x="689" 
d="M365 0h-145l76 360h-104l23 111h105l36 168h-255l29 133h653l-28 -133h-255l-36 -168h105l-23 -111h-105z" />
    <glyph glyph-name="tbar" unicode="&#x167;" horiz-adv-x="391" 
d="M69 494h91l29 138l142 26l-34 -164h132l-24 -113h-133l-23 -108h113l-17 -80h-113l-5 -25q-9 -44 -9 -72q0 -30 12.5 -49t41.5 -36l-3 -9l-139 -15q-52 28 -52 99q0 26 8 60l10 47h-80l17 80h80l23 108h-91z" />
    <glyph glyph-name="Utilde" unicode="&#x168;" horiz-adv-x="777" 
d="M196 772h145l-101 -471q-6 -34 -6 -63q0 -55 33.5 -82.5t87.5 -27.5q73 0 130 44t75 129l100 471h145l-102 -479q-32 -154 -127 -230.5t-226 -76.5q-121 0 -193 59.5t-72 177.5q0 21 8 63zM447 857q-23 0 -42 -16t-25 -38l-49 11q20 64 55 101.5t74 37.5q25 0 67.5 -17
t60.5 -17q23 0 41 15.5t26 38.5l49 -11q-21 -64 -56 -101.5t-73 -37.5q-26 0 -68.5 17t-59.5 17z" />
    <glyph glyph-name="utilde" unicode="&#x169;" horiz-adv-x="599" 
d="M121 494h138l-63 -294q-4 -15 -4 -30q0 -57 60 -57q63 0 107 57q16 21 24 54l58 270h136l-103 -482l-142 -27l16 77q-78 -75 -169 -75q-66 0 -99 35t-33 101q0 28 6 55zM312 650q-21 0 -38 -14t-23 -36l-46 11q16 65 49.5 103.5t73.5 38.5q25 0 65.5 -23t57.5 -23
q21 0 38 14t24 36l46 -11q-16 -65 -49.5 -103.5t-73.5 -38.5q-25 0 -66 23t-58 23z" />
    <glyph glyph-name="Umacron" unicode="&#x16a;" horiz-adv-x="777" 
d="M196 772h145l-101 -471q-6 -34 -6 -63q0 -55 33.5 -82.5t87.5 -27.5q73 0 130 44t75 129l100 471h145l-102 -479q-32 -154 -127 -230.5t-226 -76.5q-121 0 -193 59.5t-72 177.5q0 21 8 63zM683 931l-19 -88h-316l19 88h316z" />
    <glyph glyph-name="umacron" unicode="&#x16b;" horiz-adv-x="599" 
d="M121 494h138l-63 -294q-4 -15 -4 -30q0 -57 60 -57q63 0 107 57q16 21 24 54l58 270h136l-103 -482l-142 -27l16 77q-78 -75 -169 -75q-66 0 -99 35t-33 101q0 28 6 55zM530 724l-21 -96h-285l21 96h285z" />
    <glyph glyph-name="Ubreve" unicode="&#x16c;" horiz-adv-x="777" 
d="M196 772h145l-101 -471q-6 -34 -6 -63q0 -55 33.5 -82.5t87.5 -27.5q73 0 130 44t75 129l100 471h145l-102 -479q-32 -154 -127 -230.5t-226 -76.5q-121 0 -193 59.5t-72 177.5q0 21 8 63zM512 896q77 0 98 75h60q-13 -66 -56.5 -111t-113.5 -45q-109 0 -109 114
q0 17 5 42h50q-1 -6 -1 -18q0 -57 67 -57z" />
    <glyph glyph-name="ubreve" unicode="&#x16d;" horiz-adv-x="599" 
d="M121 494h138l-63 -294q-4 -15 -4 -30q0 -57 60 -57q63 0 107 57q16 21 24 54l58 270h136l-103 -482l-142 -27l16 77q-78 -75 -169 -75q-66 0 -99 35t-33 101q0 28 6 55zM375 682q82 0 100 86h59q-36 -175 -174 -175q-108 0 -108 114q0 26 8 61h51q-3 -15 -3 -28
q0 -58 67 -58z" />
    <glyph glyph-name="Uring" unicode="&#x16e;" horiz-adv-x="777" 
d="M196 772h145l-101 -471q-6 -34 -6 -63q0 -55 33.5 -82.5t87.5 -27.5q73 0 130 44t75 129l100 471h145l-102 -479q-32 -154 -127 -230.5t-226 -76.5q-121 0 -193 59.5t-72 177.5q0 21 8 63zM413 897q0 44 37 79t82 35q41 0 67 -28t26 -68q0 -44 -37 -79t-82 -35
q-41 0 -67 28t-26 68zM460 897q0 -21 13 -35t33 -14q27 0 49.5 20.5t22.5 46.5q0 20 -13.5 34.5t-33.5 14.5q-27 0 -49 -20.5t-22 -46.5z" />
    <glyph glyph-name="uring" unicode="&#x16f;" horiz-adv-x="599" 
d="M121 494h138l-63 -294q-4 -15 -4 -30q0 -57 60 -57q63 0 107 57q16 21 24 54l58 270h136l-103 -482l-142 -27l16 77q-78 -75 -169 -75q-66 0 -99 35t-33 101q0 28 6 55zM269 672q0 46 38 82t83 36q42 0 69.5 -29t27.5 -70q0 -46 -37.5 -82t-83.5 -36q-42 0 -69.5 29
t-27.5 70zM322 672q0 -19 12.5 -32.5t31.5 -13.5q27 0 47.5 19.5t20.5 45.5q0 19 -12.5 32t-31.5 13q-27 0 -47.5 -19t-20.5 -45z" />
    <glyph glyph-name="Uhungarumlaut" unicode="&#x170;" horiz-adv-x="777" 
d="M196 772h145l-101 -471q-6 -34 -6 -63q0 -55 33.5 -82.5t87.5 -27.5q73 0 130 44t75 129l100 471h145l-102 -479q-32 -154 -127 -230.5t-226 -76.5q-121 0 -193 59.5t-72 177.5q0 21 8 63zM477 964h135l-167 -149h-70zM633 964h136l-168 -149h-70z" />
    <glyph glyph-name="uhungarumlaut" unicode="&#x171;" horiz-adv-x="599" 
d="M121 494h138l-63 -294q-4 -15 -4 -30q0 -57 60 -57q63 0 107 57q16 21 24 54l58 270h136l-103 -482l-142 -27l16 77q-78 -75 -169 -75q-66 0 -99 35t-33 101q0 28 6 55zM329 770h132l-159 -179h-60zM484 770h133l-159 -179h-60z" />
    <glyph glyph-name="Uogonek" unicode="&#x172;" horiz-adv-x="777" 
d="M196 772h145l-101 -471q-6 -34 -6 -63q0 -55 33.5 -82.5t87.5 -27.5q73 0 130 44t75 129l100 471h145l-102 -479q-17 -83 -54.5 -142t-106.5 -115q-74 -58 -101 -92t-27 -63q0 -13 9 -21.5t25 -8.5q45 0 79 33h2l-27 -97q-38 -24 -92 -24t-84 24t-30 67q0 36 24.5 66.5
t85.5 71.5q-22 -6 -56 -6q-121 0 -193 59.5t-72 177.5q0 21 8 63z" />
    <glyph glyph-name="uogonek" unicode="&#x173;" horiz-adv-x="599" 
d="M121 494h138l-63 -294q-4 -15 -4 -30q0 -57 60 -57q63 0 107 57q16 21 24 54l58 270h136l-105 -494q-142 -43 -142 -119q0 -13 9 -21.5t25 -8.5q44 0 78 33h2l-27 -97q-38 -24 -92 -24t-84 24t-30 67q0 38 28.5 71.5t95.5 74.5l13 62q-78 -75 -169 -75q-66 0 -99 35
t-33 101q0 28 6 55z" />
    <glyph glyph-name="Wcircumflex" unicode="&#x174;" horiz-adv-x="1198" 
d="M707 0l-76 396l-252 -396h-110l-155 772h154l95 -571l234 362l-44 209h154l90 -553l343 553h168l-495 -772h-106zM777 815l-73 80l-104 -80h-75l128 149h120l65 -149h-61z" />
    <glyph glyph-name="wcircumflex" unicode="&#x175;" horiz-adv-x="835" 
d="M402 494h125l13 -349l201 349h147l-312 -494h-135l-19 287l-161 -287h-136l-72 494h133l32 -349zM572 591l-64 97l-104 -97h-71l143 179h89l66 -179h-59z" />
    <glyph glyph-name="Ycircumflex" unicode="&#x176;" horiz-adv-x="724" 
d="M369 0h-145l78 364l-192 408h161l120 -281l254 281h193l-391 -407zM563 815l-73 80l-104 -80h-75l128 149h120l65 -149h-61z" />
    <glyph glyph-name="ycircumflex" unicode="&#x177;" horiz-adv-x="547" 
d="M-54 -234q120 102 207 241l-100 487h140l54 -334l206 334h148l-325 -507q-96 -150 -162 -224h-169zM422 591l-64 97l-104 -97h-71l143 179h89l66 -179h-59z" />
    <glyph glyph-name="Ydieresis" unicode="&#x178;" horiz-adv-x="724" 
d="M369 0h-145l78 364l-192 408h161l120 -281l254 281h193l-391 -407zM377 965q31 0 48.5 -17.5t17.5 -47.5q0 -31 -23 -53t-55 -22q-31 0 -49 17t-18 46q0 33 23 55t56 22zM605 965q30 0 47.5 -18t17.5 -47q0 -31 -22.5 -53t-55.5 -22q-31 0 -49 17t-18 46q0 33 23 55
t57 22z" />
    <glyph glyph-name="Zacute" unicode="&#x179;" horiz-adv-x="727" 
d="M617 0h-677l585 631h-375l42 141h640l-595 -632h435zM665 964l-171 -149h-77l96 149h152z" />
    <glyph glyph-name="zacute" unicode="&#x17a;" horiz-adv-x="525" 
d="M423 0h-478l362 372h-231l39 122h451l-363 -371h267zM526 770l-191 -179h-61l101 179h151z" />
    <glyph glyph-name="Zdotaccent" unicode="&#x17b;" horiz-adv-x="727" 
d="M617 0h-677l585 631h-375l42 141h640l-595 -632h435zM503 966q31 0 49.5 -18t18.5 -48q0 -35 -23.5 -58t-58.5 -23q-32 0 -50 18t-18 48q0 35 23.5 58t58.5 23z" />
    <glyph glyph-name="zdotaccent" unicode="&#x17c;" horiz-adv-x="525" 
d="M423 0h-478l362 372h-231l39 122h451l-363 -371h267zM362 760q33 0 52.5 -19.5t19.5 -51.5q0 -35 -25.5 -60t-62.5 -25q-34 0 -53 19t-19 50q0 37 25.5 62t62.5 25z" />
    <glyph glyph-name="Zcaron" unicode="&#x17d;" horiz-adv-x="727" 
d="M617 0h-677l585 631h-375l42 141h640l-595 -632h435zM353 964h61l72 -80l105 80h75l-128 -149h-120z" />
    <glyph glyph-name="zcaron" unicode="&#x17e;" horiz-adv-x="525" 
d="M423 0h-478l362 372h-231l39 122h451l-363 -371h267zM223 770h58l63 -98l105 98h73l-143 -179h-89z" />
    <glyph glyph-name="florin" unicode="&#x192;" 
d="M-6 23q19 -18 60 -18q42 0 74.5 41t67.5 138l67 179h-98l25 116h115l30 79q43 112 100 163t136 51q72 0 112 -34l-49 -117q-18 28 -52 28q-42 0 -69.5 -27t-52.5 -93l-18 -50h135l-25 -116h-153l-75 -201q-55 -148 -117 -214t-141 -66q-58 0 -88 22z" />
    <glyph glyph-name="uni0218" unicode="&#x218;" horiz-adv-x="558" 
d="M50 200q85 -85 182 -85q60 0 94.5 29.5t34.5 78.5q0 35 -25.5 67t-88.5 74q-67 45 -94.5 89.5t-27.5 105.5q0 99 73.5 163.5t181.5 64.5q105 0 191 -43l-32 -150q-88 66 -158 66q-49 0 -78.5 -26.5t-29.5 -66.5q0 -30 23 -56.5t91 -71.5t97.5 -93.5t29.5 -115.5
q0 -110 -85 -178t-213 -68q-122 0 -191 49l22 167h3zM257 -54q5 -17 5 -39q0 -37 -22.5 -67.5t-90.5 -76.5h-75q46 44 63.5 70.5t17.5 56.5q0 18 -7 35z" />
    <glyph glyph-name="uni0219" unicode="&#x219;" horiz-adv-x="453" 
d="M7 40l33 121q26 -32 67.5 -52t84.5 -20q36 0 55 13.5t19 35.5t-25 37q-13 8 -49 23.5t-53 26.5q-70 43 -70 120q0 71 55.5 118.5t140.5 47.5q104 0 168 -47l-51 -117q-20 25 -56 41t-68 16q-63 0 -63 -46q0 -20 25 -35q12 -7 47.5 -23t50.5 -24q75 -45 75 -122
q0 -76 -58 -123.5t-153 -47.5q-113 0 -175 57zM206 -54q5 -17 5 -39q0 -37 -22.5 -67.5t-90.5 -76.5h-75q46 44 63.5 70.5t17.5 56.5q0 18 -7 35z" />
    <glyph glyph-name="uni021A" unicode="&#x21a;" horiz-adv-x="689" 
d="M365 0h-145l136 639h-255l29 133h653l-28 -133h-255zM331 -54q5 -17 5 -39q0 -37 -22.5 -67.5t-90.5 -76.5h-75q46 44 63.5 70.5t17.5 56.5q0 18 -7 35z" />
    <glyph glyph-name="uni021B" unicode="&#x21b;" horiz-adv-x="391" 
d="M69 494h91l29 138l142 26l-34 -164h132l-24 -113h-133l-45 -213q-9 -44 -9 -72q0 -30 12.5 -49t41.5 -36l-3 -9l-139 -15q-52 28 -52 99q0 26 8 60l50 235h-91zM194 -54q5 -17 5 -39q0 -37 -22.5 -67.5t-90.5 -76.5h-75q46 44 63.5 70.5t17.5 56.5q0 18 -7 35z" />
    <glyph glyph-name="dotlessj" unicode="&#x237;" horiz-adv-x="288" 
d="M126 481l143 28l-110 -515q-30 -138 -87 -190l-188 -41l-3 15q109 60 140 209z" />
    <glyph glyph-name="circumflex" unicode="&#x2c6;" horiz-adv-x="314" 
d="M317 576l-64 97l-104 -97h-71l143 179h89l66 -179h-59z" />
    <glyph glyph-name="caron" unicode="&#x2c7;" horiz-adv-x="314" 
d="M116 755h58l63 -98l105 98h73l-143 -179h-89z" />
    <glyph glyph-name="uni02C9" unicode="&#x2c9;" horiz-adv-x="334" 
d="M342 709l-21 -96h-285l21 96h285z" />
    <glyph glyph-name="breve" unicode="&#x2d8;" horiz-adv-x="294" 
d="M233 667q82 0 100 86h59q-36 -175 -174 -175q-108 0 -108 114q0 26 8 61h51q-3 -15 -3 -28q0 -58 67 -58z" />
    <glyph glyph-name="dotaccent" unicode="&#x2d9;" horiz-adv-x="176" 
d="M186 745q33 0 52.5 -19.5t19.5 -51.5q0 -35 -25.5 -60t-62.5 -25q-34 0 -53 19t-19 50q0 37 25.5 62t62.5 25z" />
    <glyph glyph-name="ring" unicode="&#x2da;" horiz-adv-x="237" 
d="M99 657q0 46 38 82t83 36q42 0 69.5 -29t27.5 -70q0 -46 -37.5 -82t-83.5 -36q-42 0 -69.5 29t-27.5 70zM152 657q0 -19 12.5 -32.5t31.5 -13.5q27 0 47.5 19.5t20.5 45.5q0 19 -12.5 32t-31.5 13q-27 0 -47.5 -19t-20.5 -45z" />
    <glyph glyph-name="ogonek" unicode="&#x2db;" horiz-adv-x="251" 
d="M52 0l9 21h131l-3 -21q-142 -43 -142 -119q0 -13 9 -21.5t25 -8.5q44 0 78 33h2l-27 -97q-38 -24 -92 -24t-84 24t-30 67q0 38 28.5 71.5t95.5 74.5z" />
    <glyph glyph-name="tilde" unicode="&#x2dc;" horiz-adv-x="354" 
d="M196 635q-21 0 -38 -14t-23 -36l-46 11q16 65 49.5 103.5t73.5 38.5q25 0 65.5 -23t57.5 -23q21 0 38 14t24 36l46 -11q-16 -65 -49.5 -103.5t-73.5 -38.5q-25 0 -66 23t-58 23z" />
    <glyph glyph-name="hungarumlaut" unicode="&#x2dd;" horiz-adv-x="350" 
d="M165 755h132l-159 -179h-60zM320 755h133l-159 -179h-60z" />
    <glyph glyph-name="uni0394" unicode="&#x394;" horiz-adv-x="771" 
d="M712 0h-757l497 751l91 8zM469 587l-312 -476h414z" />
    <glyph glyph-name="uni03A9" unicode="&#x3a9;" horiz-adv-x="796" 
d="M-18 0l8 120h206q-34 48 -62 116q-34 77 -34 160q0 166 109.5 278.5t286.5 112.5q140 0 215 -75t75 -198q0 -73 -26.5 -138t-87.5 -141q-55 -69 -108 -115h188l-42 -120h-314l26 120q79 64 138 146q50 68 70 121t20 113q0 70 -41.5 114t-122.5 44q-121 0 -191 -76.5
t-70 -197.5q0 -68 14 -116q28 -89 82 -148l-25 -120h-314z" />
    <glyph glyph-name="uni03BC" unicode="&#x3bc;" horiz-adv-x="578" 
d="M215 -13q-53 0 -60 46l-51 -243l-140 -27l155 731h134l-61 -287q-4 -22 -4 -30q0 -56 59 -56q49 0 89 40q29 25 40 71l56 262h134l-102 -482l-140 -27l15 75q-50 -73 -124 -73z" />
    <glyph glyph-name="pi" unicode="&#x3c0;" 
d="M80 494h569l-23 -108h-111l-43 -201q-5 -28 -5 -42q0 -41 45 -41q28 0 56 18l-32 -112q-33 -15 -71 -15q-66 0 -95.5 26.5t-29.5 84.5q0 26 7 58l48 224h-127l-44 -208q-24 -112 -88 -178h-130q41 39 63.5 80t34.5 98l44 208h-90z" />
    <glyph glyph-name="Wgrave" unicode="&#x1e80;" horiz-adv-x="1198" 
d="M707 0l-76 396l-252 -396h-110l-155 772h154l95 -571l234 362l-44 209h154l90 -553l343 553h168l-495 -772h-106zM675 815l-116 149h134l51 -149h-69z" />
    <glyph glyph-name="wgrave" unicode="&#x1e81;" horiz-adv-x="835" 
d="M402 494h125l13 -349l201 349h147l-312 -494h-135l-19 287l-161 -287h-136l-72 494h133l32 -349zM483 591l-117 179h134l42 -179h-59z" />
    <glyph glyph-name="Wacute" unicode="&#x1e82;" horiz-adv-x="1198" 
d="M707 0l-76 396l-252 -396h-110l-155 772h154l95 -571l234 362l-44 209h154l90 -553l343 553h168l-495 -772h-106zM867 964l-171 -149h-77l96 149h152z" />
    <glyph glyph-name="wacute" unicode="&#x1e83;" horiz-adv-x="835" 
d="M402 494h125l13 -349l201 349h147l-312 -494h-135l-19 287l-161 -287h-136l-72 494h133l32 -349zM674 770l-191 -179h-61l101 179h151z" />
    <glyph glyph-name="Wdieresis" unicode="&#x1e84;" horiz-adv-x="1198" 
d="M707 0l-76 396l-252 -396h-110l-155 772h154l95 -571l234 362l-44 209h154l90 -553l343 553h168l-495 -772h-106zM590 965q30 0 48 -17.5t18 -47.5q0 -31 -23 -53t-55 -22q-31 0 -49 17t-18 46q0 33 23 55t56 22zM818 965q30 0 47.5 -18t17.5 -47q0 -31 -22.5 -53
t-55.5 -22q-31 0 -49 17t-18 46q0 33 23 55t57 22z" />
    <glyph glyph-name="wdieresis" unicode="&#x1e85;" horiz-adv-x="835" 
d="M402 494h125l13 -349l201 349h147l-312 -494h-135l-19 287l-161 -287h-136l-72 494h133l32 -349zM401 743q29 0 46.5 -17t17.5 -44q0 -31 -21.5 -52t-53.5 -21q-30 0 -46.5 16.5t-16.5 44.5q0 31 21.5 52t52.5 21zM611 743q29 0 46 -17t17 -44q0 -31 -21.5 -52t-52.5 -21
q-30 0 -47 16.5t-17 44.5q0 31 21.5 52t53.5 21z" />
    <glyph glyph-name="germandblS" unicode="&#x1e9e;" horiz-adv-x="763" 
d="M791 693l-221 -252q74 -17 111 -69t37 -126q0 -118 -87.5 -190.5t-217.5 -72.5q-95 0 -145 35l19 147q38 -55 130 -55q75 0 119 37t44 93q0 49 -35.5 80.5t-110.5 31.5q-52 0 -89 -12l-1 3l253 291q-40 21 -95 21q-88 0 -151.5 -51t-83.5 -142l-98 -462h-145l99 465
q31 144 139.5 231.5t256.5 87.5q166 0 272 -91z" />
    <glyph glyph-name="Ygrave" unicode="&#x1ef2;" horiz-adv-x="724" 
d="M369 0h-145l78 364l-192 408h161l120 -281l254 281h193l-391 -407zM461 815l-116 149h134l51 -149h-69z" />
    <glyph glyph-name="ygrave" unicode="&#x1ef3;" horiz-adv-x="547" 
d="M-54 -234q120 102 207 241l-100 487h140l54 -334l206 334h148l-325 -507q-96 -150 -162 -224h-169zM333 591l-117 179h134l42 -179h-59z" />
    <glyph glyph-name="endash" unicode="&#x2013;" horiz-adv-x="600" 
d="M589 312l-18 -87h-550l18 87h550z" />
    <glyph glyph-name="emdash" unicode="&#x2014;" horiz-adv-x="1000" 
d="M989 312l-18 -87h-950l18 87h950z" />
    <glyph glyph-name="quoteleft" unicode="&#x2018;" horiz-adv-x="222" 
d="M139 497q-31 29 -31 92q0 74 52 123.5t135 73.5l8 -24q-36 -15 -58 -43t-22 -64q0 -53 42 -85z" />
    <glyph glyph-name="quoteright" unicode="&#x2019;" horiz-adv-x="222" 
d="M252 786q30 -30 30 -91q0 -75 -52 -124.5t-135 -73.5l-7 24q36 15 58 43.5t22 64.5q0 53 -43 84z" />
    <glyph glyph-name="quotesinglbase" unicode="&#x201a;" horiz-adv-x="252" 
d="M137 147q30 -30 30 -91q0 -75 -52 -124.5t-135 -73.5l-7 24q36 15 58 43.5t22 64.5q0 53 -43 84z" />
    <glyph glyph-name="quotedblleft" unicode="&#x201c;" horiz-adv-x="411" 
d="M331 497q-31 29 -31 92q0 74 52 123.5t135 73.5l8 -24q-36 -15 -58 -43t-22 -64q0 -53 42 -85zM139 497q-31 29 -31 92q0 74 52 123.5t135 73.5l8 -24q-36 -15 -58 -43t-22 -64q0 -53 42 -85z" />
    <glyph glyph-name="quotedblright" unicode="&#x201d;" horiz-adv-x="411" 
d="M442 786q30 -30 30 -91q0 -75 -52 -124.5t-135 -73.5l-7 24q36 15 58 43.5t22 64.5q0 53 -43 84zM249 786q30 -30 30 -91q0 -75 -52 -124.5t-135 -73.5l-7 24q36 15 58 43.5t22 64.5q0 53 -43 84z" />
    <glyph glyph-name="quotedblbase" unicode="&#x201e;" horiz-adv-x="444" 
d="M329 147q30 -30 30 -91q0 -75 -52 -124.5t-135 -73.5l-7 24q36 15 58 43.5t22 64.5q0 53 -43 84zM137 147q30 -30 30 -91q0 -75 -52 -124.5t-135 -73.5l-7 24q36 15 58 43.5t22 64.5q0 53 -43 84z" />
    <glyph glyph-name="dagger" unicode="&#x2020;" horiz-adv-x="482" 
d="M278 735h137l-69 -208l181 18l-26 -124l-174 19l-9 -146q-70 -211 -111 -406h-82q44 212 60 406l53 146l-180 -19l26 124l173 -18z" />
    <glyph glyph-name="daggerdbl" unicode="&#x2021;" horiz-adv-x="504" 
d="M245 -112h-137l66 201l-181 -19l27 124l173 -19l7 137l50 136l-181 -19l27 124l173 -19l19 201h137l-67 -201l181 19l-27 -124l-172 19l-7 -136l-51 -137l181 19l-27 -124l-173 19z" />
    <glyph glyph-name="bullet" unicode="&#x2022;" horiz-adv-x="323" 
d="M71 400q0 50 36.5 86.5t87.5 36.5q50 0 86.5 -36.5t36.5 -86.5q0 -51 -36.5 -87t-86.5 -36q-52 0 -88 35.5t-36 87.5z" />
    <glyph glyph-name="ellipsis" unicode="&#x2026;" horiz-adv-x="808" 
d="M374 140q33 0 51.5 -19t18.5 -52q0 -35 -25 -60t-62 -25q-33 0 -51.5 19t-18.5 50q0 37 25.5 62t61.5 25zM647 140q33 0 51.5 -19t18.5 -52q0 -35 -25 -60t-62 -25q-33 0 -51.5 19t-18.5 50q0 37 25.5 62t61.5 25zM101 140q33 0 51.5 -19t18.5 -52q0 -35 -25 -60t-62 -25
q-33 0 -51.5 19t-18.5 50q0 37 25.5 62t61.5 25z" />
    <glyph glyph-name="perthousand" unicode="&#x2030;" horiz-adv-x="1165" 
d="M784 752l-618 -752h-91l617 752h92zM239 375q-61 0 -95 33.5t-34 93.5q0 86 66.5 160.5t146.5 74.5q61 0 95 -33.5t34 -93.5q0 -86 -66.5 -160.5t-146.5 -74.5zM320 657q-48 0 -87 -48.5t-39 -103.5q0 -50 47 -50q49 0 88 48.5t39 103.5q0 50 -48 50zM530 15
q-60 0 -94.5 33.5t-34.5 93.5q0 86 66.5 160.5t146.5 74.5q61 0 95 -33.5t34 -93.5q0 -86 -66.5 -160.5t-146.5 -74.5zM612 297q-49 0 -88 -48.5t-39 -103.5q0 -50 48 -50t87.5 48.5t39.5 103.5q0 50 -48 50zM898 15q-61 0 -95 33.5t-34 93.5q0 86 66.5 160.5t146.5 74.5
q60 0 94.5 -33.5t34.5 -93.5q0 -86 -66.5 -160.5t-146.5 -74.5zM980 297q-49 0 -88.5 -48.5t-39.5 -103.5q0 -50 49 -50q48 0 87.5 48.5t39.5 103.5q0 50 -48 50z" />
    <glyph glyph-name="guilsinglleft" unicode="&#x2039;" horiz-adv-x="321" 
d="M139 82l-103 165l163 165h114l-134 -166l64 -164h-104z" />
    <glyph glyph-name="guilsinglright" unicode="&#x203a;" horiz-adv-x="321" 
d="M183 412l104 -165l-164 -165h-113l134 165l-64 165h103z" />
    <glyph glyph-name="fraction" unicode="&#x2044;" horiz-adv-x="150" 
d="M494 780l-682 -810h-101l682 810h101z" />
    <glyph glyph-name="zero.superior" unicode="&#x2070;" horiz-adv-x="398" 
d="M252 448q-65 0 -102.5 42t-37.5 118q0 113 60 182.5t148 69.5q66 0 103.5 -41.5t37.5 -117.5q0 -113 -60.5 -183t-148.5 -70zM258 525q47 0 77 50.5t30 124.5q0 82 -52 82q-47 0 -77 -50.5t-30 -123.5q0 -83 52 -83z" />
    <glyph glyph-name="four.superior" unicode="&#x2074;" horiz-adv-x="379" 
d="M257 458l20 94h-201l11 50l243 248h96l-49 -229h64l-15 -69h-64l-20 -94h-85zM169 621h123l34 160z" />
    <glyph glyph-name="five.superior" unicode="&#x2075;" horiz-adv-x="357" 
d="M447 850l-27 -72h-163l-22 -61q4 1 15 1q67 0 103 -33.5t36 -86.5q0 -68 -60.5 -111t-169.5 -43q-39 0 -69 8l27 77q28 -5 59 -5q59 0 92 21.5t33 55.5q0 24 -21.5 38t-63.5 14q-36 0 -76 -10l70 207h237z" />
    <glyph glyph-name="six.superior" unicode="&#x2076;" horiz-adv-x="359" 
d="M399 779q-132 -10 -188 -94q31 18 73 18q54 0 85.5 -29t31.5 -80q0 -59 -44 -102.5t-107 -43.5q-70 0 -107 35t-37 98q0 105 82.5 187t243.5 94zM264 649q-44 0 -78 -26q-4 -16 -4 -38q0 -29 18 -45t51 -16q29 0 50 21.5t21 50.5q0 23 -16 38t-42 15z" />
    <glyph glyph-name="seven.superior" unicode="&#x2077;" horiz-adv-x="337" 
d="M117 458q76 141 196 313l-191 -4l48 83h276q-157 -243 -224 -392h-105z" />
    <glyph glyph-name="eight.superior" unicode="&#x2078;" horiz-adv-x="382" 
d="M105 554q0 76 95 110q-42 30 -42 85q0 45 43 78t101 33q63 0 96 -30t33 -77q0 -57 -72 -90q54 -31 54 -95q0 -49 -44 -84.5t-119 -35.5q-70 0 -107.5 28.5t-37.5 77.5zM327 580q0 42 -57 56q-36 -9 -56.5 -29.5t-20.5 -45.5q0 -18 15 -30.5t42 -12.5q36 0 56.5 18
t20.5 44zM240 738q0 -33 46 -52q63 22 63 66q0 16 -13 27.5t-34 11.5q-25 0 -43.5 -15.5t-18.5 -37.5z" />
    <glyph glyph-name="nine.superior" unicode="&#x2079;" horiz-adv-x="367" 
d="M170 441l-41 69q113 36 168 86h-1q-72 0 -114 31.5t-42 86.5q0 59 45 102.5t113 43.5q65 0 100 -38.5t35 -104.5q0 -90 -66 -161t-197 -115zM307 653q17 0 34 3q12 32 12 65q0 30 -17.5 48t-46.5 18q-33 0 -53 -21.5t-20 -51.5q0 -28 24.5 -44.5t66.5 -16.5z" />
    <glyph glyph-name="n.superior" unicode="&#x207f;" horiz-adv-x="422" 
d="M76 350l74 344h93l-9 -43q61 53 123 53q44 0 68.5 -25t24.5 -69q0 -14 -4 -36l-48 -224h-95l44 204q2 12 2 23q0 41 -42 41q-36 0 -66 -28q-24 -21 -32 -57l-39 -183h-94z" />
    <glyph glyph-name="zero.inferior" unicode="&#x2080;" horiz-adv-x="398" 
d="M124 -152q-65 0 -102.5 42t-37.5 118q0 113 60 182.5t148 69.5q66 0 103.5 -41.5t37.5 -117.5q0 -113 -60.5 -183t-148.5 -70zM130 -75q47 0 77 50.5t30 124.5q0 82 -52 82q-47 0 -77 -50.5t-30 -123.5q0 -83 52 -83z" />
    <glyph glyph-name="one.inferior" unicode="&#x2081;" horiz-adv-x="281" 
d="M122 -142h-95l68 315l-90 -3l29 80h172z" />
    <glyph glyph-name="two.inferior" unicode="&#x2082;" horiz-adv-x="362" 
d="M188 -1q-45 -35 -93 -63h170l-27 -78h-282l16 71q69 41 133 91q50 39 67.5 64t17.5 52q0 18 -13 29t-38 11q-58 0 -116 -41l33 101q40 24 101 24q65 0 98.5 -30.5t33.5 -80.5q0 -35 -22 -70t-79 -80z" />
    <glyph glyph-name="three.inferior" unicode="&#x2083;" horiz-adv-x="355" 
d="M282 162q0 -30 -22.5 -56t-60.5 -39q61 -27 61 -92q0 -56 -48.5 -91.5t-122.5 -35.5q-79 0 -121 22l14 85q38 -26 106 -26q36 0 58.5 16t22.5 39q0 18 -17 29t-47 11q-47 0 -84 -10l33 82q24 -2 48 -2q37 0 60 13.5t23 38.5q0 15 -13.5 25t-39.5 10q-52 0 -90 -23l38 91
q29 11 77 11q60 0 92.5 -27t32.5 -71z" />
    <glyph glyph-name="four.inferior" unicode="&#x2084;" horiz-adv-x="379" 
d="M130 -142l20 94h-201l11 50l243 248h96l-49 -229h64l-15 -69h-64l-20 -94h-85zM42 21h123l34 160z" />
    <glyph glyph-name="five.inferior" unicode="&#x2085;" horiz-adv-x="357" 
d="M319 250l-27 -72h-163l-22 -61q4 1 15 1q67 0 103 -33.5t36 -86.5q0 -68 -60.5 -111t-169.5 -43q-39 0 -69 8l27 77q28 -5 59 -5q58 0 91.5 21.5t33.5 55.5q0 24 -21.5 38t-63.5 14q-36 0 -76 -10l70 207h237z" />
    <glyph glyph-name="six.inferior" unicode="&#x2086;" horiz-adv-x="359" 
d="M272 179q-132 -10 -188 -94q31 18 73 18q54 0 85.5 -29t31.5 -80q0 -59 -44 -102.5t-107 -43.5q-70 0 -107 35t-37 98q0 105 82.5 187t243.5 94zM137 49q-44 0 -78 -26q-4 -16 -4 -38q0 -29 18 -45t51 -16q29 0 50 21.5t21 50.5q0 23 -16 38t-42 15z" />
    <glyph glyph-name="seven.inferior" unicode="&#x2087;" horiz-adv-x="337" 
d="M-11 -142q76 141 196 313l-191 -4l48 83h276q-157 -243 -224 -392h-105z" />
    <glyph glyph-name="eight.inferior" unicode="&#x2088;" horiz-adv-x="382" 
d="M-23 -46q0 76 95 110q-42 30 -42 85q0 45 43 78t101 33q63 0 96 -30t33 -77q0 -57 -72 -90q54 -31 54 -95q0 -49 -44 -84.5t-119 -35.5q-70 0 -107.5 28.5t-37.5 77.5zM199 -20q0 42 -57 56q-36 -9 -56.5 -29.5t-20.5 -45.5q0 -18 15 -30.5t42 -12.5q36 0 56.5 18
t20.5 44zM112 138q0 -33 46 -52q63 22 63 66q0 16 -13 27.5t-34 11.5q-25 0 -43.5 -15.5t-18.5 -37.5z" />
    <glyph glyph-name="nine.inferior" unicode="&#x2089;" horiz-adv-x="367" 
d="M42 -159l-41 69q113 36 168 86h-1q-72 0 -114 31.5t-42 86.5q0 59 45 102.5t113 43.5q65 0 100 -38.5t35 -104.5q0 -90 -66 -161t-197 -115zM179 53q17 0 34 3q12 31 12 65q0 30 -17.5 48t-46.5 18q-33 0 -53 -21.5t-20 -51.5q0 -28 24.5 -44.5t66.5 -16.5z" />
    <glyph glyph-name="Euro" unicode="&#x20ac;" 
d="M68 425l38 82h25q49 119 154 188.5t243 69.5q95 0 159 -31l-49 -109q-43 27 -116 27q-83 0 -147.5 -38.5t-103.5 -106.5h314l-37 -82h-311q-11 -42 -14 -80h289l-37 -82h-250q20 -153 195 -153q82 0 151 43l-44 -142q-50 -22 -115 -22q-143 0 -224.5 68t-92.5 206h-71
l38 82h32q3 37 11 80h-37z" />
    <glyph glyph-name="uni20B9" unicode="&#x20b9;" 
d="M85 470l55 90h276q-8 102 -140 102h-150l55 90h501l-54 -90h-120q35 -41 38 -102h95l-54 -90h-52q-44 -142 -236 -196l164 -274h-173l-186 335l1 4q135 14 204.5 46.5t92.5 84.5h-317z" />
    <glyph glyph-name="uni20BA" unicode="&#x20ba;" 
d="M89 413l22 104l72 34l43 201h139l-29 -137l162 77l-23 -104l-161 -77l-19 -89l161 77l-22 -104l-161 -76l-41 -193q10 -2 19 -2q74 0 137 50t107 146l108 -72q-58 -124 -159 -192.5t-224 -68.5q-93 0 -151 24l51 242l-72 -34l22 104l72 34l19 90z" />
    <glyph glyph-name="afii61289" unicode="&#x2113;" horiz-adv-x="407" 
d="M309 22q-20 -16 -53 -26.5t-59 -10.5q-74 0 -108.5 29t-34.5 96q0 25 5 45l5 23l-42 -33l-1 92l67 55l65 310q19 89 67.5 133.5t115.5 44.5q60 0 91.5 -36.5t31.5 -101.5q0 -83 -61.5 -164t-227.5 -216l-18 -84q-5 -28 -5 -45q0 -28 16 -40t52 -12q64 0 125 55h3z
M239 585l-44 -203q101 87 137.5 141.5t36.5 112.5q0 56 -42 56q-66 0 -88 -107z" />
    <glyph glyph-name="trademark" unicode="&#x2122;" horiz-adv-x="955" 
d="M529 350v402h107l136 -269l138 269h107v-402h-94v245l-125 -245h-50l-126 248v-248h-93zM349 350h-97v313h-126v89h350v-89h-127v-313z" />
    <glyph glyph-name="Omega" unicode="&#x2126;" horiz-adv-x="796" 
d="M-18 0l8 120h206q-34 48 -62 116q-34 77 -34 160q0 166 109.5 278.5t286.5 112.5q140 0 215 -75t75 -198q0 -73 -26.5 -138t-87.5 -141q-55 -69 -108 -115h188l-42 -120h-314l26 120q79 64 138 146q50 68 70 121t20 113q0 70 -41.5 114t-122.5 44q-121 0 -191 -76.5
t-70 -197.5q0 -68 14 -116q28 -89 82 -148l-25 -120h-314z" />
    <glyph glyph-name="estimated" unicode="&#x212e;" horiz-adv-x="830" 
d="M415 671q156 0 267 -99.5t111 -247.5h-608q-10 0 -10 -11v-197q47 -51 110 -78.5t130 -27.5q73 0 139 32.5t113 88.5h57q-56 -68 -138 -105t-171 -37q-100 0 -186 42.5t-139.5 121.5t-53.5 177q0 145 110.5 243t268.5 98zM415 650q-70 0 -133 -28.5t-107 -78.5v-185
q0 -11 10 -11h461q9 0 9 11v184q-44 51 -108 79.5t-132 28.5z" />
    <glyph glyph-name="partialdiff" unicode="&#x2202;" horiz-adv-x="569" 
d="M284 478q82 0 137 -57q-5 115 -50.5 178t-125.5 63t-133 -60h-3l-11 115q59 55 164 55q124 0 197 -98t73 -272q0 -194 -80 -306.5t-210 -112.5q-97 0 -155.5 60t-58.5 158q0 127 70.5 202t185.5 75zM257 101q61 0 104 55t56 154q-50 68 -125 68q-64 0 -103 -42.5
t-39 -111.5q0 -56 28 -89.5t79 -33.5z" />
    <glyph glyph-name="Delta" unicode="&#x2206;" horiz-adv-x="771" 
d="M712 0h-757l497 751l91 8zM469 587l-312 -476h414z" />
    <glyph glyph-name="product" unicode="&#x220f;" horiz-adv-x="705" 
d="M196 -220h-120v952h553v-952h-118v841h-315v-841z" />
    <glyph glyph-name="summation" unicode="&#x2211;" horiz-adv-x="538" 
d="M516 -220h-501l293 476l-293 476h501v-104h-309l230 -372l-230 -372h309v-104z" />
    <glyph glyph-name="minus" unicode="&#x2212;" horiz-adv-x="598" 
d="M553 317v-118h-508v118h508z" />
    <glyph glyph-name="uni2215" unicode="&#x2215;" horiz-adv-x="150" 
d="M494 780l-682 -810h-101l682 810h101z" />
    <glyph glyph-name="uni2219" unicode="&#x2219;" horiz-adv-x="262" 
d="M143 338q33 0 51.5 -19t18.5 -52q0 -35 -25 -60t-62 -25q-33 0 -51.5 19t-18.5 50q0 37 25.5 62t61.5 25z" />
    <glyph glyph-name="radical" unicode="&#x221a;" horiz-adv-x="598" 
d="M263 -99l-129 387l-97 -36l-35 99l184 67l119 -359l202 831h87l-240 -989h-91z" />
    <glyph glyph-name="infinity" unicode="&#x221e;" horiz-adv-x="598" 
d="M174 400q78 0 130 -81q22 35 53.5 58t68.5 23q64 0 102 -40t38 -103q0 -65 -38 -102t-98 -37q-78 0 -131 81q-50 -81 -121 -81q-64 0 -102 40t-38 103q0 65 38 102t98 37zM430 324q-58 0 -93 -63q38 -69 89 -69q29 0 48 18t19 47q0 31 -16.5 49t-46.5 18zM174 194
q56 0 93 62q-38 70 -89 70q-29 0 -48 -18t-19 -47q0 -31 16.5 -49t46.5 -18z" />
    <glyph glyph-name="integral" unicode="&#x222b;" horiz-adv-x="472" 
d="M183 28v479q0 126 45 185.5t140 59.5q54 0 90 -21l-17 -115q-30 28 -67 28q-45 0 -65 -31.5t-20 -103.5v-461q0 -140 -46.5 -204t-146.5 -64q-51 0 -81 26l21 107q28 -28 65 -28q44 0 63 32.5t19 110.5z" />
    <glyph glyph-name="approxequal" unicode="&#x2248;" horiz-adv-x="598" 
d="M557 367q-49 -86 -136 -86q-46 0 -122 41t-118 41q-60 0 -93 -49l-46 90q45 70 136 70q47 0 122.5 -41.5t116.5 -41.5q56 0 92 57zM557 133q-45 -70 -136 -70q-46 0 -122 41.5t-118 41.5q-55 0 -91 -58l-48 82q49 86 136 86q46 0 122 -41t117 -41q59 0 94 49z" />
    <glyph glyph-name="notequal" unicode="&#x2260;" horiz-adv-x="598" 
d="M553 207v-103h-301l-42 -69h-103l42 69h-104v103h167l63 103h-230v103h293l43 69h104l-43 -69h111v-103h-174l-63 -103h237z" />
    <glyph glyph-name="lessequal" unicode="&#x2264;" horiz-adv-x="598" 
d="M553 415l-404 -90l404 -89v-97l-508 129v114l508 130v-97zM553 110v-95h-508v95h508z" />
    <glyph glyph-name="greaterequal" unicode="&#x2265;" horiz-adv-x="598" 
d="M45 139v97l405 89l-405 90v97l508 -130v-114zM553 110v-95h-508v95h508z" />
    <glyph glyph-name="lozenge" unicode="&#x25ca;" horiz-adv-x="521" 
d="M37 390l187 390h73l187 -390l-187 -390h-73zM135 391l125 -260l125 261l-125 258z" />
    <glyph glyph-name="commaaccent" unicode="&#xf6c3;" horiz-adv-x="174" 
d="M86 -54q5 -17 5 -39q0 -37 -22.5 -67.5t-90.5 -76.5h-75q46 44 63.5 70.5t17.5 56.5q0 18 -7 35z" />
    <glyph glyph-name="uniF8FF" unicode="&#xf8ff;" horiz-adv-x="587" 
d="M217 115q28 0 46 -17.5t18 -45.5t-17.5 -46.5t-45.5 -18.5q-30 0 -48 18t-18 47q0 28 18 45.5t47 17.5zM264 184l-100 -20v170q85 4 132 33t47 79q0 39 -28.5 62t-79.5 23q-50 0 -87 -15l17 105q37 10 89 10q91 0 147.5 -46.5t56.5 -129.5q0 -74 -52.5 -125t-141.5 -67
v-79zM0 -128v870h587v-870h-587zM72 671v-728h443v728h-443z" />
    <glyph glyph-name="fi" unicode="&#xfb01;" horiz-adv-x="667" 
d="M421 494l-25 -113h-129l-81 -381h-137l81 381h-85l24 113h85l14 64q33 155 148 197l172 25l-13 -59q-82 -17 -121 -60.5t-55 -128.5l-8 -38h130zM505 481l143 28l-108 -509h-137zM623 751q33 0 52 -19.5t19 -51.5q0 -35 -25.5 -60t-61.5 -25q-33 0 -52 19t-19 50
q0 37 25.5 62t61.5 25z" />
    <glyph glyph-name="fl" unicode="&#xfb02;" horiz-adv-x="667" 
d="M421 494l-25 -113h-129l-81 -381h-137l81 381h-85l24 113h85l14 64q33 155 148 197l172 25l-13 -59q-82 -17 -121 -60.5t-55 -128.5l-8 -38h130zM706 780l-166 -780h-137l160 752z" />
    <glyph glyph-name="NULL" horiz-adv-x="0" 
 />
    <glyph glyph-name="caron.alt" horiz-adv-x="150" 
d="M241 781q4 -13 4 -35q0 -39 -22.5 -76.5t-80.5 -91.5h-61q3 4 10.5 17t10 16.5t8.5 14t8 14.5l6.5 13t6 14t4.5 13.5t3.5 15t1.5 14.5t1 16q0 20 -3 33z" />
    <glyph glyph-name="commaaccent.alt" horiz-adv-x="174" 
d="M95 571q-6 15 -6 39q0 37 22.5 67.5t90.5 76.5h75q-45 -44 -62.5 -70.5t-17.5 -56.5q0 -21 7 -35z" />
    <glyph glyph-name="grave.cap" horiz-adv-x="227" 
d="M273 815l-116 149h134l51 -149h-69z" />
    <glyph glyph-name="acute.cap" horiz-adv-x="227" 
d="M376 964l-171 -149h-77l96 149h152z" />
    <glyph glyph-name="circumflex.cap" horiz-adv-x="328" 
d="M381 815l-73 80l-104 -80h-75l128 149h120l65 -149h-61z" />
    <glyph glyph-name="tilde.cap" horiz-adv-x="361" 
d="M247 857q-23 0 -42 -16t-25 -38l-49 11q20 64 55 101.5t74 37.5q25 0 67.5 -17t60.5 -17q23 0 41 15.5t26 38.5l49 -11q-21 -64 -56 -101.5t-73 -37.5q-26 0 -68.5 17t-59.5 17z" />
    <glyph glyph-name="dieresis.cap" horiz-adv-x="388" 
d="M225 965q31 0 48.5 -17.5t17.5 -47.5q0 -31 -23 -53t-55 -22q-31 0 -49 17t-18 46q0 33 23 55t56 22zM453 965q30 0 47.5 -18t17.5 -47q0 -31 -22.5 -53t-55.5 -22q-31 0 -49 17t-18 46q0 33 23 55t57 22z" />
    <glyph glyph-name="macron.cap" horiz-adv-x="336" 
d="M472 931l-19 -88h-316l19 88h316z" />
    <glyph glyph-name="breve.cap" horiz-adv-x="294" 
d="M280 896q77 0 98 75h60q-13 -66 -56.5 -111t-113.5 -45q-109 0 -109 114q0 17 5 42h50q-1 -6 -1 -18q0 -57 67 -57z" />
    <glyph glyph-name="ring.cap" horiz-adv-x="231" 
d="M150 897q0 44 37 79t82 35q41 0 67 -28t26 -68q0 -44 -37 -79t-82 -35q-41 0 -67 28t-26 68zM197 897q0 -21 13 -35t33 -14q27 0 49.5 20.5t22.5 46.5q0 20 -13.5 34.5t-33.5 14.5q-27 0 -49 -20.5t-22 -46.5z" />
    <glyph glyph-name="hungarumlaut.cap" horiz-adv-x="373" 
d="M230 964h135l-167 -149h-70zM386 964h136l-168 -149h-70z" />
    <glyph glyph-name="dotaccent.cap" horiz-adv-x="167" 
d="M228 966q31 0 49.5 -18t18.5 -48q0 -35 -23.5 -58t-58.5 -23q-32 0 -50 18t-18 48q0 35 23.5 58t58.5 23z" />
    <glyph glyph-name="caron.cap" horiz-adv-x="328" 
d="M160 964h61l72 -80l105 80h75l-128 -149h-120z" />
    <glyph glyph-name="questiondown.cap" horiz-adv-x="483" 
d="M427 628q-33 0 -52 19.5t-19 51.5q0 35 25.5 60t61.5 25q33 0 52 -19t19 -50q0 -37 -25.5 -62t-61.5 -25zM343 541l125 25l-44 -209q-119 -5 -188.5 -48.5t-69.5 -114.5q0 -42 31 -66t87 -24q59 0 109 18l-47 -126q-40 -12 -87 -12q-107 0 -170.5 51t-63.5 143
q0 103 83 174.5t215 93.5z" />
    <glyph glyph-name="exclamdown.cap" horiz-adv-x="315" 
d="M258 626q-33 0 -51.5 19t-18.5 52q0 35 25 60t62 25q33 0 51.5 -19t18.5 -50q0 -37 -25.5 -62t-61.5 -25zM197 6l-174 -22q74 296 198 569l28 -5q2 -111 -12.5 -261.5t-39.5 -280.5z" />
    <glyph glyph-name="periodcenterd.cap" horiz-adv-x="262" 
d="M169 464q33 0 51.5 -19t18.5 -52q0 -35 -25 -60t-62 -25q-33 0 -51.5 19t-18.5 50q0 37 25.5 62t61.5 25z" />
    <glyph glyph-name="hyphen.cap" horiz-adv-x="324" 
d="M332 445l-25 -118h-254l25 118h254z" />
    <glyph glyph-name="endash.cap" horiz-adv-x="600" 
d="M614 430l-18 -87h-550l18 87h550z" />
    <glyph glyph-name="emdash.cap" horiz-adv-x="1000" 
d="M1014 430l-18 -87h-950l18 87h950z" />
    <glyph glyph-name="uni00AD.cap" horiz-adv-x="324" 
d="M332 445l-25 -118h-254l25 118h254z" />
    <glyph glyph-name="parenleft.cap" horiz-adv-x="364" 
d="M80 288q0 151 60 278t194 243h101q-140 -133 -193 -254t-53 -285q0 -170 66 -311h-83q-92 131 -92 329z" />
    <glyph glyph-name="parenright.cap" horiz-adv-x="364" 
d="M344 481q0 -152 -60 -279t-194 -243h-102q141 133 194 254t53 285q0 172 -67 311h84q92 -131 92 -328z" />
    <glyph glyph-name="bracketleft.cap" horiz-adv-x="364" 
d="M14 -41l181 850h251l-15 -70h-143l-150 -710h142l-15 -70h-251z" />
    <glyph glyph-name="bracketright.cap" horiz-adv-x="364" 
d="M409 809l-180 -850h-252l15 70h142l151 710h-142l15 70h251z" />
    <glyph glyph-name="braceleft.cap" horiz-adv-x="364" 
d="M45 353l14 66q53 4 84 35.5t41 79.5l26 120q18 82 73 118.5t158 36.5l-14 -66q-49 0 -75.5 -23.5t-38.5 -78.5l-27 -129q-24 -109 -134 -130q78 -21 78 -108q0 -20 -4 -40l-23 -109q-4 -21 -4 -39q0 -33 18 -46.5t57 -13.5l-14 -67q-167 0 -167 123q0 28 5 50l23 106
q4 16 4 34q0 74 -80 81z" />
    <glyph glyph-name="braceright.cap" horiz-adv-x="364" 
d="M378 416l-14 -67q-53 -4 -84 -35.5t-41 -79.5l-26 -119q-18 -83 -73.5 -119.5t-157.5 -36.5l14 67q48 0 75 23t39 79l27 128q24 109 134 130q-79 21 -79 108q0 15 5 40l23 109q4 21 4 39q0 33 -18 47t-57 14l14 66q83 0 124.5 -29.5t41.5 -93.5q0 -28 -5 -50l-22 -105
q-4 -16 -4 -34q0 -74 80 -81z" />
    <glyph glyph-name="guilsinglleft.cap" horiz-adv-x="321" 
d="M169 221l-104 165l164 165h113l-134 -166l64 -164h-103z" />
    <glyph glyph-name="guilsinglright.cap" horiz-adv-x="321" 
d="M213 551l104 -165l-164 -165h-113l134 165l-64 165h103z" />
    <glyph glyph-name="guillemotleft.cap" horiz-adv-x="500" 
d="M162 221l-96 165l156 165h105l-134 -165l64 -165h-95zM356 221l-97 165l157 165h105l-134 -165l64 -165h-95z" />
    <glyph glyph-name="guillemotright.cap" horiz-adv-x="500" 
d="M197 551l104 -165l-164 -165h-97l134 165l-64 165h87zM391 551l104 -165l-164 -165h-98l134 165l-64 165h88z" />
    <glyph glyph-name="A.superior" horiz-adv-x="432" 
d="M27 350l266 400l72 10l85 -410h-101l-14 80h-144l-46 -80h-118zM306 630l-78 -128h99z" />
    <glyph glyph-name="B.superior" horiz-adv-x="361" 
d="M405 661q0 -28 -18.5 -53t-50.5 -40q49 -26 49 -88q0 -57 -50.5 -93.5t-128.5 -36.5h-135l85 402h125q60 0 92 -25t32 -66zM202 524l-21 -98h34q39 0 57 16t18 40q0 19 -13.5 30.5t-38.5 11.5h-36zM234 676l-18 -88h23q38 0 55.5 15.5t17.5 38.5q0 14 -11.5 24t-31.5 10
h-35z" />
    <glyph glyph-name="C.superior" horiz-adv-x="397" 
d="M462 723l-30 -109h-3q-33 52 -100 52q-61 0 -101 -40.5t-40 -96.5q0 -41 25 -66.5t68 -25.5q71 0 137 66h3l-37 -123q-53 -37 -122 -37q-80 0 -126.5 50.5t-46.5 135.5q0 92 72.5 161t172.5 69q83 0 128 -36z" />
    <glyph glyph-name="D.superior" horiz-adv-x="419" 
d="M200 350h-129l85 402h117q92 0 141.5 -47.5t49.5 -126.5q0 -103 -69.5 -165.5t-194.5 -62.5zM235 663l-48 -224h30q70 0 108 37.5t38 99.5q0 38 -24.5 62.5t-69.5 24.5h-34z" />
    <glyph glyph-name="E.superior" horiz-adv-x="324" 
d="M236 668l-15 -71h120l-16 -79h-121l-18 -84h145l-18 -84h-242l85 402h240l-18 -84h-142z" />
    <glyph glyph-name="F.superior" horiz-adv-x="310" 
d="M399 752l-18 -84h-145l-18 -83h131l-17 -83h-132l-32 -152h-97l85 402h243z" />
    <glyph glyph-name="G.superior" horiz-adv-x="406" 
d="M442 545l-35 -160q-70 -42 -141 -42q-83 0 -131.5 47.5t-48.5 128.5q0 93 70 166.5t178 73.5q75 0 130 -32l-32 -105h-3q-30 48 -99 48q-63 0 -103 -42.5t-40 -108.5q0 -41 24 -65.5t67 -24.5q25 0 44 11l22 105h98z" />
    <glyph glyph-name="H.superior" horiz-adv-x="439" 
d="M168 350h-97l85 402h98l-32 -149h148l32 149h97l-85 -402h-97l34 164h-148z" />
    <glyph glyph-name="I.superior" horiz-adv-x="194" 
d="M168 350h-97l86 402h97z" />
    <glyph glyph-name="J.superior" horiz-adv-x="194" 
d="M157 752h96l-70 -332q-27 -124 -78 -168l-127 -25l-2 5q46 33 70.5 72.5t40.5 116.5z" />
    <glyph glyph-name="K.superior" horiz-adv-x="424" 
d="M168 350h-97l85 402h98l-38 -177l177 177h127l-212 -203l138 -199h-120l-118 186z" />
    <glyph glyph-name="L.superior" horiz-adv-x="328" 
d="M71 350l85 402h98l-67 -313h171l-19 -89h-268z" />
    <glyph glyph-name="M.superior" horiz-adv-x="585" 
d="M71 350l85 402h101l81 -265l193 265h114l-86 -402h-93l51 242l-177 -242h-50l-74 243l-51 -243h-94z" />
    <glyph glyph-name="N.superior" horiz-adv-x="476" 
d="M442 752h94l-85 -402h-76l-157 250l-53 -250h-94l85 402h75l158 -249z" />
    <glyph glyph-name="O.superior" horiz-adv-x="455" 
d="M267 431q54 0 92.5 46t38.5 101q0 42 -21.5 67.5t-57.5 25.5q-54 0 -93.5 -41.5t-39.5 -99.5q0 -43 22 -71t59 -28zM498 586q0 -97 -69 -170.5t-168 -73.5q-80 0 -127.5 49.5t-47.5 128.5q0 100 70.5 170t167.5 70q80 0 127 -47.5t47 -126.5z" />
    <glyph glyph-name="P.superior" horiz-adv-x="351" 
d="M168 350h-97l85 402h115q67 0 104.5 -30.5t37.5 -85.5q0 -75 -49 -116.5t-140 -41.5h-29zM236 670l-23 -110h22q39 0 61 18t22 48q0 44 -56 44h-26z" />
    <glyph glyph-name="Q.superior" horiz-adv-x="460" 
d="M265 351q-26 0 -55 8v-2q45 -18 102 -30q44 -9 90 -9l-45 -88q-51 2 -92 18q-29 11 -73 32t-54 25q-28 11 -49 16l55 77q-56 53 -56 126q0 96 71.5 166t170.5 70q79 0 126.5 -49.5t47.5 -129.5q0 -96 -70.5 -163t-168.5 -67zM401 577q0 40 -21.5 66t-57.5 26
q-54 0 -93 -42.5t-39 -102.5q0 -41 21.5 -67.5t57.5 -26.5q53 0 92.5 44t39.5 103z" />
    <glyph glyph-name="R.superior" horiz-adv-x="381" 
d="M72 350l85 402h116q68 0 105.5 -29.5t37.5 -82.5q0 -42 -27.5 -75.5t-73.5 -51.5l87 -163h-108l-77 146h-17l-32 -146h-96zM237 670l-24 -112h5q46 0 71 19.5t25 48.5q0 44 -59 44h-18z" />
    <glyph glyph-name="S.superior" horiz-adv-x="302" 
d="M86 476q49 -47 96 -47q45 0 45 38q0 27 -54 68q-32 25 -44.5 48t-12.5 55q0 54 40 88t98 34t106 -23l-21 -98q-55 37 -86 37q-18 0 -28 -9t-10 -23q0 -12 10.5 -24t45.5 -38q32 -25 45.5 -49.5t13.5 -60.5q0 -58 -46 -94t-115 -36q-64 0 -100 25l14 109h3z" />
    <glyph glyph-name="T.superior" horiz-adv-x="381" 
d="M262 350h-97l66 313h-126l19 89h350l-19 -89h-127z" />
    <glyph glyph-name="U.superior" horiz-adv-x="421" 
d="M152 752h97l-52 -241q-3 -15 -3 -27q0 -46 53 -46q32 0 57 18.5t32 54.5l52 241h97l-53 -246q-17 -82 -68 -122.5t-121 -40.5q-67 0 -107 32.5t-40 97.5q0 11 3 28z" />
    <glyph glyph-name="V.superior" horiz-adv-x="436" 
d="M113 752h105l42 -267l159 267h121l-263 -402h-81z" />
    <glyph glyph-name="W.superior" horiz-adv-x="659" 
d="M430 350l-39 183l-120 -183h-73l-85 402h104l45 -269l106 158l-25 111h105l43 -255l160 255h112l-263 -402h-70z" />
    <glyph glyph-name="X.superior" horiz-adv-x="432" 
d="M31 350l194 215l-108 187h114l59 -122l98 122h131l-183 -194l116 -208h-114l-70 139l-116 -139h-121z" />
    <glyph glyph-name="Y.superior" horiz-adv-x="397" 
d="M262 350h-96l40 192l-95 210h108l48 -130l108 130h129l-201 -210z" />
    <glyph glyph-name="Z.superior" horiz-adv-x="391" 
d="M381 350h-361l275 308h-170l28 94h346l-283 -309h201z" />
    <glyph glyph-name="b.superior" horiz-adv-x="431" 
d="M230 338q-52 0 -82 23l-74 -20l107 504l98 19l-38 -179q39 21 86 21q63 0 102 -40.5t39 -109.5q0 -94 -67 -156t-171 -62zM292 632q-38 0 -67 -24l-39 -185q15 -14 45 -14q62 0 100 38.5t38 101.5q0 38 -20.5 60.5t-56.5 22.5z" />
    <glyph glyph-name="c.superior" horiz-adv-x="351" 
d="M375 468l-36 -106q-44 -24 -101 -24q-73 0 -114 40.5t-41 110.5q0 92 62.5 154.5t163.5 62.5q64 0 104 -28l-29 -88q-30 33 -78 33q-55 0 -90 -36.5t-35 -89.5q0 -34 21 -54.5t61 -20.5q62 0 109 46h3z" />
    <glyph glyph-name="d.superior" horiz-adv-x="432" 
d="M313 339l8 33q-43 -34 -98 -34q-68 0 -104 42t-36 108q0 90 68 154t158 64q42 0 71 -16l33 155l98 19l-107 -505zM255 414q42 0 73 25l36 175q-20 16 -56 16q-54 0 -91.5 -39t-37.5 -99q0 -36 20 -57t56 -21z" />
    <glyph glyph-name="e.superior" horiz-adv-x="362" 
d="M276 503q-30 -8 -113 -21q9 -64 79 -64q71 0 129 55h2l-29 -99q-49 -36 -114 -36q-75 0 -113 41.5t-38 103.5q0 81 69.5 152t156.5 71q51 0 78 -24.5t27 -64.5q0 -82 -134 -114zM280 637q-35 0 -69.5 -33.5t-44.5 -78.5q50 9 84 20q65 23 65 62q0 30 -35 30z" />
    <glyph glyph-name="f.superior" horiz-adv-x="264" 
d="M352 694l-17 -77h-90l-57 -267h-94l57 267h-60l16 77h60l4 18q23 106 102 134l119 18l-9 -41q-57 -12 -82.5 -39t-37.5 -81l-2 -9h91z" />
    <glyph glyph-name="g.superior" horiz-adv-x="373" 
d="M263 705q52 0 86 -21q27 27 51.5 39t57.5 12l-16 -77q-29 0 -55 -15q12 -23 12 -47q0 -97 -140 -130q-14 -3 -38.5 -8t-30.5 -6q-25 -6 -25 -15t30 -15q11 -2 47 -7t48 -7q76 -14 76 -79q0 -59 -61.5 -101.5t-142.5 -42.5q-60 0 -92.5 27t-32.5 68q0 55 64 93
q-37 18 -37 48q0 39 92 71q-51 27 -51 79q0 53 47 93.5t111 40.5zM243 340q-12 3 -44.5 8.5t-49.5 9.5q-40 -20 -40 -57q0 -19 17.5 -30.5t48.5 -11.5q40 0 68 16.5t28 38.5q0 19 -28 26zM186 569q0 -31 31 -47q6 -3 12 -3q5 0 14 3q64 20 64 66q0 20 -13 33t-36 13
q-30 0 -51 -18.5t-21 -46.5z" />
    <glyph glyph-name="h.superior" horiz-adv-x="422" 
d="M76 350l106 495l98 19l-45 -213q61 53 122 53q44 0 68.5 -25t24.5 -69q0 -14 -4 -36l-48 -224h-94l43 204q3 18 3 23q0 41 -43 41q-36 0 -66 -28q-23 -20 -31 -56l-40 -184h-94z" />
    <glyph glyph-name="i.superior" horiz-adv-x="201" 
d="M148 685l98 19l-76 -354h-94zM229 873q22 0 35.5 -13.5t13.5 -36.5q0 -24 -18 -41t-43 -17q-23 0 -35.5 13t-12.5 35q0 25 17.5 42.5t42.5 17.5z" />
    <glyph glyph-name="j.superior" horiz-adv-x="200" 
d="M147 685l99 19l-77 -358q-20 -95 -61 -133l-130 -28l-2 11q75 40 98 146zM227 873q23 0 35.5 -13.5t12.5 -36.5q0 -24 -17 -41t-42 -17q-23 0 -36 13.5t-13 34.5q0 25 17.5 42.5t42.5 17.5z" />
    <glyph glyph-name="k.superior" horiz-adv-x="409" 
d="M280 864l-68 -318l157 148h119l-186 -164l144 -180h-115l-124 174l-37 -174h-94l106 495z" />
    <glyph glyph-name="l.superior" horiz-adv-x="200" 
d="M280 864l-110 -514h-94l106 495z" />
    <glyph glyph-name="m.superior" 
d="M502 350l45 208q2 16 2 20q0 40 -40 40q-37 0 -63 -31q-12 -14 -18 -32l-44 -205h-95l44 208q3 12 3 20q0 40 -40 40q-37 0 -64 -32q-17 -18 -22 -45l-40 -191h-94l74 344h93l-8 -37q42 47 100 47q70 0 92 -57q54 57 121 57q50 0 75.5 -25.5t25.5 -69.5q0 -17 -4 -32
l-48 -227h-95z" />
    <glyph glyph-name="p.superior" horiz-adv-x="428" 
d="M150 694h90q31 9 65 9q71 0 114 -41.5t43 -112.5q0 -91 -64 -151t-164 -60q-37 0 -64 12l-31 -146l-98 -19zM282 632q-34 0 -54 -13l-43 -197q16 -13 49 -13q58 0 94.5 39t36.5 100q0 39 -22 61.5t-61 22.5z" />
    <glyph glyph-name="q.superior" horiz-adv-x="431" 
d="M474 694l-104 -489l-98 -20l36 172q-34 -18 -80 -18q-68 0 -106.5 40t-38.5 110q0 95 65 156t164 61q40 0 69 -12h93zM259 417q42 0 66 18l40 188q-19 12 -53 12q-60 0 -96 -39.5t-36 -99.5q0 -37 20.5 -58t58.5 -21z" />
    <glyph glyph-name="r.superior" horiz-adv-x="279" 
d="M369 699l-22 -99q-16 2 -30 2q-94 0 -106 -59l-41 -193h-94l74 344h93l-11 -50q50 57 110 57q18 0 27 -2z" />
    <glyph glyph-name="s.superior" horiz-adv-x="315" 
d="M64 378l22 81q40 -50 106 -50q25 0 39 10.5t14 26.5t-17 27q-11 7 -36 18t-36 17q-48 29 -48 83q0 50 38.5 82.5t97.5 32.5q72 0 116 -33l-33 -79q-14 18 -39.5 29.5t-47.5 11.5q-46 0 -46 -35q0 -16 18 -26q4 -2 30.5 -14.5t37.5 -18.5q52 -31 52 -84t-40 -86t-106 -33
q-79 0 -122 40z" />
    <glyph glyph-name="t.superior" horiz-adv-x="272" 
d="M107 694h64l20 96l98 19l-24 -115h92l-16 -77h-93l-31 -150q-7 -33 -7 -50q0 -37 37 -59l-2 -7l-95 -11q-36 20 -36 70q0 17 5 42l35 165h-63z" />
    <glyph glyph-name="u.superior" horiz-adv-x="417" 
d="M143 694h94l-43 -205q-3 -12 -3 -21q0 -40 43 -40q45 0 75 41q12 15 17 37l41 188h93l-71 -336l-98 -19l11 55q-55 -53 -119 -53q-91 0 -91 95q0 22 4 38z" />
    <glyph glyph-name="v.superior" horiz-adv-x="375" 
d="M96 694h96l26 -246l146 246h107l-222 -344h-97z" />
    <glyph glyph-name="w.superior" horiz-adv-x="581" 
d="M339 694h87l9 -245l140 245h102l-218 -344h-92l-14 201l-113 -201h-93l-51 344h93l21 -243z" />
    <glyph glyph-name="x.superior" horiz-adv-x="395" 
d="M479 694l-173 -171l102 -173h-100l-62 116l-107 -116h-117l182 180l-97 164h105l53 -107l96 107h118z" />
    <glyph glyph-name="y.superior" horiz-adv-x="379" 
d="M22 187q77 65 143 166l-69 341h97l38 -233l143 233h103l-226 -353q-66 -103 -114 -156h-116z" />
    <glyph glyph-name="z.superior" horiz-adv-x="366" 
d="M354 350h-333l253 260h-161l27 84h314l-254 -260h186z" />
    <glyph glyph-name="zero.numerator" horiz-adv-x="398" 
d="M231 350q-65 0 -102.5 42t-37.5 118q0 113 60 182.5t148 69.5q66 0 103.5 -41.5t37.5 -117.5q0 -113 -60.5 -183t-148.5 -70zM237 427q47 0 77 50.5t30 124.5q0 82 -52 82q-47 0 -77 -50.5t-30 -123.5q0 -83 52 -83z" />
    <glyph glyph-name="one.numerator" horiz-adv-x="281" 
d="M228 360h-95l68 315l-90 -3l29 80h172z" />
    <glyph glyph-name="two.numerator" horiz-adv-x="362" 
d="M295 501q-45 -35 -93 -63h170l-27 -78h-282l16 71q69 41 133 91q50 39 67.5 64t17.5 52q0 18 -13 29t-38 11q-58 0 -116 -41l33 101q40 24 101 24q65 0 98.5 -30.5t33.5 -80.5q0 -35 -22 -70t-79 -80z" />
    <glyph glyph-name="three.numerator" horiz-adv-x="355" 
d="M388 664q0 -30 -22.5 -56t-60.5 -39q61 -27 61 -92q0 -56 -48.5 -91.5t-122.5 -35.5q-79 0 -121 22l14 85q38 -26 106 -26q37 0 59 16t22 39q0 18 -17 29t-47 11q-47 0 -84 -10l33 82q24 -2 48 -2q37 0 60 13.5t23 38.5q0 15 -13.5 25t-39.5 10q-52 0 -90 -23l38 91
q29 11 77 11q60 0 92.5 -27t32.5 -71z" />
    <glyph glyph-name="four.numerator" horiz-adv-x="379" 
d="M236 360l20 94h-201l11 50l243 248h96l-49 -229h64l-15 -69h-64l-20 -94h-85zM148 523h123l34 160z" />
    <glyph glyph-name="five.numerator" horiz-adv-x="357" 
d="M426 752l-27 -72h-163l-22 -61q4 1 15 1q67 0 103 -33.5t36 -86.5q0 -68 -60.5 -111t-169.5 -43q-39 0 -69 8l27 77q28 -5 59 -5q59 0 92 21.5t33 55.5q0 24 -21.5 38t-63.5 14q-36 0 -76 -10l70 207h237z" />
    <glyph glyph-name="six.numerator" horiz-adv-x="359" 
d="M378 681q-132 -10 -188 -94q32 18 73 18q54 0 85.5 -29t31.5 -80q0 -59 -44 -102.5t-107 -43.5q-70 0 -107 35t-37 98q0 105 82.5 187t243.5 94zM243 551q-44 0 -78 -26q-4 -16 -4 -38q0 -29 18 -45t51 -16q29 0 50 21.5t21 50.5q0 23 -16 38t-42 15z" />
    <glyph glyph-name="seven.numerator" horiz-adv-x="337" 
d="M96 360q76 141 196 313l-191 -4l48 83h276q-157 -243 -224 -392h-105z" />
    <glyph glyph-name="eight.numerator" horiz-adv-x="382" 
d="M84 456q0 76 95 110q-42 30 -42 85q0 45 43 78t101 33q63 0 96 -30t33 -77q0 -57 -72 -90q54 -31 54 -95q0 -49 -44 -84.5t-119 -35.5q-70 0 -107.5 28.5t-37.5 77.5zM306 482q0 42 -57 56q-36 -9 -56.5 -29.5t-20.5 -45.5q0 -18 15 -30.5t42 -12.5q36 0 56.5 17.5
t20.5 44.5zM219 640q0 -33 46 -52q63 22 63 66q0 16 -13 27.5t-34 11.5q-25 0 -43.5 -15.5t-18.5 -37.5z" />
    <glyph glyph-name="nine.numerator" horiz-adv-x="367" 
d="M149 343l-41 69q113 36 168 86h-1q-72 0 -114 31.5t-42 86.5q0 59 45 102.5t113 43.5q65 0 100 -38.5t35 -104.5q0 -90 -66 -161t-197 -115zM286 555q18 0 34 3q12 32 12 65q0 30 -17.5 48t-46.5 18q-33 0 -53 -21.5t-20 -51.5q0 -28 24.5 -44.5t66.5 -16.5z" />
    <glyph glyph-name="zero.denominator" horiz-adv-x="398" 
d="M154 -10q-65 0 -102.5 42t-37.5 118q0 113 60 182.5t148 69.5q66 0 103.5 -41.5t37.5 -117.5q0 -113 -60.5 -183t-148.5 -70zM160 67q47 0 77 50.5t30 124.5q0 82 -52 82q-47 0 -77 -50.5t-30 -123.5q0 -83 52 -83z" />
    <glyph glyph-name="one.denominator" horiz-adv-x="281" 
d="M152 0h-95l68 315l-90 -3l29 80h172z" />
    <glyph glyph-name="two.denominator" horiz-adv-x="362" 
d="M218 141q-45 -35 -93 -63h170l-27 -78h-282l16 71q69 41 133 91q50 39 67.5 64t17.5 52q0 18 -13 29t-38 11q-58 0 -116 -41l33 101q40 24 101 24q65 0 98.5 -30.5t33.5 -80.5q0 -35 -22 -70t-79 -80z" />
    <glyph glyph-name="three.denominator" horiz-adv-x="355" 
d="M312 304q0 -30 -22.5 -56t-60.5 -39q61 -27 61 -92q0 -56 -48.5 -91.5t-122.5 -35.5q-79 0 -121 22l14 85q38 -26 106 -26q36 0 58.5 16t22.5 39q0 18 -17 29t-47 11q-47 0 -84 -10l33 82q24 -2 48 -2q37 0 60 13.5t23 38.5q0 15 -13.5 25t-39.5 10q-52 0 -90 -23l38 91
q29 11 77 11q60 0 92.5 -27t32.5 -71z" />
    <glyph glyph-name="four.denominator" horiz-adv-x="379" 
d="M160 0l20 94h-201l11 50l243 248h96l-49 -229h64l-15 -69h-64l-20 -94h-85zM72 163h123l34 160z" />
    <glyph glyph-name="five.denominator" horiz-adv-x="357" 
d="M350 392l-27 -72h-163l-22 -61q4 1 15 1q67 0 103 -33.5t36 -86.5q0 -68 -60.5 -111t-169.5 -43q-39 0 -69 8l27 77q28 -5 59 -5q59 0 92 21.5t33 55.5q0 24 -21.5 38t-63.5 14q-36 0 -76 -10l70 207h237z" />
    <glyph glyph-name="six.denominator" horiz-adv-x="359" 
d="M302 321q-132 -10 -188 -94q31 18 73 18q54 0 85.5 -29t31.5 -80q0 -59 -44 -102.5t-107 -43.5q-70 0 -107 35t-37 98q0 105 82.5 187t243.5 94zM167 191q-44 0 -78 -26q-4 -16 -4 -38q0 -29 18 -45t51 -16q29 0 50 21.5t21 50.5q0 23 -16 38t-42 15z" />
    <glyph glyph-name="seven.denominator" horiz-adv-x="337" 
d="M19 0q76 141 196 313l-191 -4l48 83h276q-157 -243 -224 -392h-105z" />
    <glyph glyph-name="eight.denominator" horiz-adv-x="382" 
d="M7 96q0 76 95 110q-42 30 -42 85q0 45 43 78t101 33q63 0 96 -30t33 -77q0 -57 -72 -90q54 -31 54 -95q0 -49 -44 -84.5t-119 -35.5q-70 0 -107.5 28.5t-37.5 77.5zM229 122q0 42 -57 56q-36 -9 -56.5 -29.5t-20.5 -45.5q0 -18 15 -30.5t42 -12.5q36 0 56.5 18t20.5 44z
M142 280q0 -33 46 -52q63 22 63 66q0 16 -13 27.5t-34 11.5q-25 0 -43.5 -15.5t-18.5 -37.5z" />
    <glyph glyph-name="nine.denominator" horiz-adv-x="367" 
d="M72 -17l-41 69q113 36 168 86h-1q-72 0 -114 31.5t-42 86.5q0 59 45 102.5t113 43.5q65 0 100 -38.5t35 -104.5q0 -90 -66 -161t-197 -115zM209 195q17 0 34 3q12 32 12 65q0 30 -17.5 48t-46.5 18q-33 0 -53 -21.5t-20 -51.5q0 -28 24.5 -44.5t66.5 -16.5z" />
    <glyph glyph-name="zero.scprop" horiz-adv-x="588" 
d="M256 -14q-100 0 -158 59.5t-58 167.5q0 150 84.5 238.5t214.5 88.5q101 0 158.5 -59t57.5 -167q0 -150 -85 -239t-214 -89zM262 96q65 0 108 62.5t43 159.5q0 54 -21 83t-59 29q-66 0 -108 -62t-42 -160q0 -53 20.5 -82.5t58.5 -29.5z" />
    <glyph glyph-name="one.scprop" horiz-adv-x="366" 
d="M228 0h-141l86 402l-127 -7l45 132h249z" />
    <glyph glyph-name="two.scprop" horiz-adv-x="497" 
d="M316 197q-40 -32 -111 -77h218l-38 -120h-388l23 104q109 66 189 130q53 42 74 70.5t21 60.5q0 27 -18 43t-51 16q-79 0 -152 -45l48 132q59 29 148 29q83 0 125 -40.5t42 -105.5q0 -50 -28.5 -95.5t-101.5 -101.5z" />
    <glyph glyph-name="three.scprop" horiz-adv-x="475" 
d="M430 412q0 -47 -30.5 -83.5t-89.5 -55.5q84 -37 84 -118q0 -74 -62.5 -121.5t-155.5 -47.5q-112 0 -167 30l20 116q51 -34 128 -34q47 0 75 20.5t28 51.5q0 23 -20.5 38t-58.5 15q-63 0 -108 -9l43 106q18 -3 64 -3q50 0 79.5 17t29.5 50q0 20 -16 32.5t-46 12.5
q-72 0 -130 -34l53 127q46 18 118 18q78 0 120 -35.5t42 -92.5z" />
    <glyph glyph-name="four.scprop" horiz-adv-x="562" 
d="M247 0l25 116h-269l17 83l312 328h154l-66 -307h81l-22 -104h-81l-24 -116h-127zM141 220h153l44 208z" />
    <glyph glyph-name="five.scprop" horiz-adv-x="472" 
d="M462 527l-38 -106h-184l-30 -86q3 1 15 1q85 0 129 -41.5t44 -109.5q0 -103 -88.5 -161t-252.5 -58q-34 0 -67 7l38 112q27 -6 63 -6q84 0 131 28.5t47 75.5q0 30 -27 48t-76 18q-53 0 -101 -9l96 287h301z" />
    <glyph glyph-name="six.scprop" horiz-adv-x="526" 
d="M448 429q-183 -7 -260 -123q51 28 109 28q76 0 120.5 -41t44.5 -111q0 -81 -67 -138.5t-163 -57.5q-101 0 -152.5 52t-51.5 144q0 66 32 131t89.5 118.5t148 88t197.5 38.5zM241 254q-47 0 -86 -30q-3 -18 -3 -36q0 -99 79 -99q38 0 66 25t28 64q0 34 -22 55t-62 21z" />
    <glyph glyph-name="seven.scprop" horiz-adv-x="444" 
d="M115 527h369q-197 -314 -281 -527h-150q91 188 251 415l-255 -4z" />
    <glyph glyph-name="eight.scprop" horiz-adv-x="519" 
d="M444 151q0 -68 -60.5 -116t-158.5 -48q-92 0 -142.5 39.5t-50.5 106.5q0 95 128 138q-57 41 -57 115q0 65 60 109.5t145 44.5q83 0 127.5 -37.5t44.5 -99.5q0 -85 -106 -133q70 -41 70 -119zM322 160q0 54 -68 75q-46 -11 -70.5 -34t-24.5 -53q0 -26 19.5 -42t54.5 -16
q41 0 65 20t24 50zM220 376q0 -26 14.5 -42.5t48.5 -29.5q75 29 75 84q0 22 -16.5 36.5t-45.5 14.5q-31 0 -53.5 -18t-22.5 -45z" />
    <glyph glyph-name="nine.scprop" horiz-adv-x="500" 
d="M138 -27l-78 91q142 54 214 126q-21 -3 -44 -3q-80 0 -126.5 41.5t-46.5 113.5q0 79 67 138.5t162 59.5q91 0 140.5 -48.5t49.5 -135.5q0 -123 -89 -221.5t-249 -161.5zM277 264q31 0 54 9q16 35 16 77q0 38 -18.5 59t-53.5 21q-36 0 -60.5 -25t-24.5 -64q0 -35 23.5 -56
t63.5 -21z" />
    <glyph glyph-name="zero.sctab" horiz-adv-x="506" 
d="M216 -14q-94 0 -147.5 58.5t-53.5 165.5q0 151 80.5 240.5t202.5 89.5q95 0 148.5 -57t53.5 -165q0 -150 -81 -241t-203 -91zM221 96q61 0 100.5 66.5t39.5 161.5q0 51 -18 78.5t-50 27.5q-62 0 -101 -65.5t-39 -161.5q0 -52 18 -79.5t50 -27.5z" />
    <glyph glyph-name="one.sctab" horiz-adv-x="506" 
d="M33 0l25 119h122l61 283l-127 -7l45 132h249l-87 -408h116l-25 -119h-379z" />
    <glyph glyph-name="two.sctab" horiz-adv-x="506" 
d="M319 197q-40 -32 -111 -77h218l-38 -120h-388l23 104q109 66 189 130q53 42 74 70.5t21 60.5q0 27 -18 43t-51 16q-79 0 -152 -45l48 132q59 29 148 29q83 0 125 -40.5t42 -105.5q0 -50 -28.5 -95.5t-101.5 -101.5z" />
    <glyph glyph-name="three.sctab" horiz-adv-x="506" 
d="M456 413q0 -47 -31 -84t-90 -56q84 -37 84 -118q0 -74 -64 -121.5t-161 -47.5q-117 0 -175 32l20 115q57 -35 135 -35q51 0 81.5 20.5t30.5 51.5q0 24 -22.5 38.5t-64.5 14.5q-63 0 -116 -10l44 108q20 -4 71 -4q53 0 84.5 17.5t31.5 50.5q0 20 -18 32t-52 12
q-76 0 -137 -34l53 127q50 18 126 18q82 0 126 -35t44 -92z" />
    <glyph glyph-name="four.sctab" horiz-adv-x="506" 
d="M230 0l25 116h-269l17 83l312 328h154l-66 -307h81l-22 -104h-81l-24 -116h-127zM124 220h153l44 208z" />
    <glyph glyph-name="five.sctab" horiz-adv-x="506" 
d="M492 527l-38 -106h-200l-30 -86q2 0 10.5 0.5t13.5 0.5q88 0 134.5 -42t46.5 -109q0 -103 -90.5 -161t-258.5 -58q-36 0 -75 7l38 112q30 -6 71 -6q88 0 136.5 28.5t48.5 75.5q0 30 -28.5 48t-82.5 18q-62 0 -110 -11l98 289h316z" />
    <glyph glyph-name="six.sctab" horiz-adv-x="506" 
d="M442 429q-183 -7 -260 -123q51 28 109 28q76 0 120.5 -41t44.5 -111q0 -81 -67 -138.5t-163 -57.5q-101 0 -152.5 52t-51.5 144q0 66 32 131t89.5 118.5t148 88t197.5 38.5zM235 254q-47 0 -86 -30q-3 -18 -3 -36q0 -99 79 -99q38 0 66 25t28 64q0 34 -22 55t-62 21z" />
    <glyph glyph-name="seven.sctab" horiz-adv-x="506" 
d="M132 527h384q-197 -314 -281 -527h-150q91 188 251 415l-270 -4z" />
    <glyph glyph-name="eight.sctab" horiz-adv-x="506" 
d="M437 151q0 -68 -60.5 -116t-158.5 -48q-92 0 -142.5 39.5t-50.5 106.5q0 95 128 138q-57 41 -57 115q0 65 60 109.5t145 44.5q83 0 127.5 -37.5t44.5 -99.5q0 -85 -106 -133q70 -41 70 -119zM315 160q0 54 -68 75q-46 -11 -70.5 -34t-24.5 -53q0 -26 19.5 -42t54.5 -16
q41 0 65 20t24 50zM213 376q0 -26 14.5 -42.5t48.5 -29.5q75 29 75 84q0 22 -16.5 36.5t-45.5 14.5q-31 0 -53.5 -18t-22.5 -45z" />
    <glyph glyph-name="nine.sctab" horiz-adv-x="506" 
d="M145 -27l-78 91q142 54 214 126q-21 -3 -44 -3q-80 0 -126.5 41.5t-46.5 113.5q0 79 67 138.5t162 59.5q91 0 140.5 -48.5t49.5 -135.5q0 -123 -89 -221.5t-249 -161.5zM284 264q32 0 54 9q16 35 16 77q0 38 -18.5 59t-53.5 21q-36 0 -60.5 -25t-24.5 -64q0 -35 23.5 -56
t63.5 -21z" />
    <glyph glyph-name="a.sc" horiz-adv-x="614" 
d="M424 0l-26 128h-210l-85 -128h-154l356 518l130 20l125 -538h-136zM351 385l-109 -161h144z" />
    <glyph glyph-name="b.sc" horiz-adv-x="552" 
d="M516 403q0 -38 -25.5 -72t-69.5 -53q72 -28 72 -103q0 -80 -67 -127.5t-178 -47.5h-219l112 527h210q82 0 123.5 -33.5t41.5 -90.5zM219 230l-29 -137h61q43 0 71 24.5t28 57.5q0 24 -18.5 39.5t-51.5 15.5h-61zM263 436l-27 -125h59q36 0 59.5 23t23.5 52q0 22 -15 36
t-41 14h-59z" />
    <glyph glyph-name="c.sc" horiz-adv-x="542" 
d="M487 180l-52 -158q-60 -35 -147 -35q-113 0 -180 66.5t-67 177.5q0 130 97 219.5t233 89.5q114 0 175 -44l-45 -133h-3q-35 52 -128 52q-81 0 -134 -51t-53 -126q0 -59 38 -92t100 -33q87 0 162 67h4z" />
    <glyph glyph-name="d.sc" horiz-adv-x="621" 
d="M244 0h-215l112 527h183q130 0 198 -60.5t68 -162.5q0 -140 -90 -222t-256 -82zM259 421l-66 -313h52q97 0 148.5 50t51.5 138q0 56 -34 90.5t-99 34.5h-53z" />
    <glyph glyph-name="e.sc" horiz-adv-x="485" 
d="M260 424l-22 -103h179l-22 -102h-178l-25 -116h210l-22 -103h-351l112 527h341l-22 -103h-200z" />
    <glyph glyph-name="f.sc" horiz-adv-x="453" 
d="M250 412l-25 -116h185l-24 -114h-185l-39 -182h-133l112 527h349l-24 -115h-216z" />
    <glyph glyph-name="g.sc" horiz-adv-x="585" 
d="M542 263l-43 -204q-93 -72 -220 -72q-110 0 -175 62.5t-65 171.5q0 133 94.5 226t241.5 93q123 0 193 -47l-51 -125h-3q-45 56 -141 56q-81 0 -137 -58t-56 -142q0 -58 32 -91t89 -33q39 0 70 21l30 142h141z" />
    <glyph glyph-name="h.sc" horiz-adv-x="670" 
d="M170 0h-141l112 527h141l-40 -190h226l40 190h141l-112 -527h-141l46 215h-226z" />
    <glyph glyph-name="i.sc" horiz-adv-x="303" 
d="M170 0h-141l112 527h141z" />
    <glyph glyph-name="j.sc" horiz-adv-x="303" 
d="M143 527h141l-86 -405q-24 -113 -53 -177.5t-76 -106.5l-207 -45l-3 11q83 43 125.5 108.5t70.5 197.5z" />
    <glyph glyph-name="k.sc" horiz-adv-x="646" 
d="M170 0h-141l112 527h141l-50 -233l264 233h184l-309 -263l225 -264h-178l-195 249z" />
    <glyph glyph-name="l.sc" horiz-adv-x="486" 
d="M29 0l112 527h141l-86 -405h254l-26 -122h-395z" />
    <glyph glyph-name="m.sc" horiz-adv-x="810" 
d="M677 0h-120l62 291l-230 -291h-60l-112 317l-68 -317h-120l112 527h122l123 -355l281 355h122z" />
    <glyph glyph-name="n.sc" horiz-adv-x="701" 
d="M141 527h113l222 -332l71 332h133l-112 -527h-110l-225 335l-71 -335h-133z" />
    <glyph glyph-name="o.sc" horiz-adv-x="637" 
d="M287 98q76 3 127 66.5t51 145.5q0 52 -29.5 84.5t-78.5 32.5q-72 0 -125 -59.5t-53 -142.5q0 -56 29 -91.5t79 -35.5zM280 -15q-113 0 -177 64.5t-64 172.5q0 138 92.5 228t231.5 90q114 0 178 -59t64 -163q0 -138 -92.5 -235.5t-232.5 -97.5z" />
    <glyph glyph-name="p.sc" horiz-adv-x="526" 
d="M170 0h-141l112 527h174q101 0 156 -41t55 -118q0 -99 -69 -153.5t-195 -54.5h-58zM261 427l-34 -160h35q57 0 88.5 25t31.5 69q0 66 -90 66h-31z" />
    <glyph glyph-name="q.sc" horiz-adv-x="620" 
d="M275 -1q-32 0 -66 8l-1 -2q119 -60 253 -65l-65 -117q-109 12 -257 98q-49 28 -87 42l72 89q-83 69 -83 185q0 125 93.5 214t221.5 89q108 0 172.5 -63t64.5 -162q0 -130 -94.5 -223t-223.5 -93zM450 310q0 52 -27 84.5t-74 32.5q-69 0 -117.5 -55t-48.5 -136
q0 -56 26.5 -90t72.5 -34q70 0 119 58.5t49 139.5z" />
    <glyph glyph-name="r.sc" horiz-adv-x="568" 
d="M29 0l112 527h202q89 0 136.5 -37t47.5 -108q0 -130 -138 -177l120 -205h-165l-96 185h-39l-39 -185h-141zM261 426l-33 -155h18q71 0 105.5 23.5t34.5 73.5q0 58 -73 58h-52z" />
    <glyph glyph-name="s.sc" horiz-adv-x="468" 
d="M26 162q71 -60 165 -60q41 0 62.5 14t21.5 38q0 19 -16 33.5t-55 29.5q-66 24 -96.5 58.5t-30.5 84.5q0 78 60.5 129t156.5 51q85 0 152 -32l-27 -126q-62 52 -133 52q-39 0 -57.5 -15t-18.5 -37q0 -17 15.5 -30t53.5 -29q67 -26 97.5 -61t30.5 -84q0 -90 -66.5 -140.5
t-168.5 -50.5q-104 0 -162 34z" />
    <glyph glyph-name="t.sc" horiz-adv-x="536" 
d="M286 0h-141l87 405h-184l26 122h508l-26 -122h-184z" />
    <glyph glyph-name="u.sc" horiz-adv-x="643" 
d="M134 527h141l-63 -296q-5 -25 -5 -41q0 -40 23 -60t62 -20q46 0 82 28.5t48 84.5l65 304h141l-65 -304q-25 -120 -102 -179.5t-178 -59.5t-160.5 45t-59.5 136q0 34 8 66z" />
    <glyph glyph-name="v.sc" horiz-adv-x="605" 
d="M60 527h147l67 -357l228 357h164l-364 -527h-115z" />
    <glyph glyph-name="w.sc" horiz-adv-x="876" 
d="M478 0l-46 229l-149 -229h-113l-110 527h141l59 -354l140 218l-26 136h139l53 -348l214 348h156l-343 -527h-115z" />
    <glyph glyph-name="x.sc" horiz-adv-x="626" 
d="M-54 0l291 282l-141 245h157l79 -158l145 158h176l-255 -254l169 -273h-158l-107 187l-180 -187h-176z" />
    <glyph glyph-name="y.sc" horiz-adv-x="592" 
d="M658 527l-303 -309l-47 -218h-141l47 220l-158 307h152l89 -207l185 207h176z" />
    <glyph glyph-name="z.sc" horiz-adv-x="561" 
d="M476 0h-523l378 401h-266l40 126h499l-378 -400h297z" />
    <glyph glyph-name="agrave.sc" horiz-adv-x="614" 
d="M424 0l-26 128h-210l-85 -128h-154l356 518l130 20l125 -538h-136zM351 385l-109 -161h144zM390 624l-117 179h134l42 -179h-59z" />
    <glyph glyph-name="aacute.sc" horiz-adv-x="614" 
d="M424 0l-26 128h-210l-85 -128h-154l356 518l130 20l125 -538h-136zM351 385l-109 -161h144zM581 803l-191 -179h-61l101 179h151z" />
    <glyph glyph-name="acircumflex.sc" horiz-adv-x="614" 
d="M424 0l-26 128h-210l-85 -128h-154l356 518l130 20l125 -538h-136zM351 385l-109 -161h144zM479 624l-64 97l-104 -97h-71l143 179h89l66 -179h-59z" />
    <glyph glyph-name="atilde.sc" horiz-adv-x="614" 
d="M424 0l-26 128h-210l-85 -128h-154l356 518l130 20l125 -538h-136zM351 385l-109 -161h144zM341 683q-21 0 -38 -14t-23 -36l-46 11q16 65 49.5 103.5t73.5 38.5q25 0 65.5 -23t57.5 -23q21 0 38 14t24 36l46 -11q-16 -65 -49.5 -103.5t-73.5 -38.5q-25 0 -66 23t-58 23z
" />
    <glyph glyph-name="adieresis.sc" horiz-adv-x="614" 
d="M424 0l-26 128h-210l-85 -128h-154l356 518l130 20l125 -538h-136zM351 385l-109 -161h144zM307 776q29 0 46.5 -17t17.5 -44q0 -31 -21.5 -52t-53.5 -21q-30 0 -46.5 16.5t-16.5 44.5q0 31 21.5 52t52.5 21zM517 776q29 0 46 -17t17 -44q0 -31 -21.5 -52t-52.5 -21
q-30 0 -47 16.5t-17 44.5q0 31 21.5 52t53.5 21z" />
    <glyph glyph-name="amacron.sc" horiz-adv-x="614" 
d="M424 0l-26 128h-210l-85 -128h-154l356 518l130 20l125 -538h-136zM351 385l-109 -161h144zM559 757l-21 -96h-285l21 96h285z" />
    <glyph glyph-name="abreve.sc" horiz-adv-x="614" 
d="M424 0l-26 128h-210l-85 -128h-154l356 518l130 20l125 -538h-136zM351 385l-109 -161h144zM404 715q82 0 100 86h59q-36 -175 -174 -175q-108 0 -108 114q0 26 8 61h51q-3 -15 -3 -28q0 -58 67 -58z" />
    <glyph glyph-name="aring.sc" horiz-adv-x="614" 
d="M424 0l-26 128h-210l-85 -128h-154l356 518l130 20l125 -538h-136zM351 385l-109 -161h144zM299 705q0 46 38 82t83 36q42 0 69.5 -29t27.5 -70q0 -46 -37.5 -82t-83.5 -36q-42 0 -69.5 29t-27.5 70zM352 705q0 -19 12.5 -32.5t31.5 -13.5q27 0 47.5 19.5t20.5 45.5
q0 19 -12.5 32t-31.5 13q-27 0 -47.5 -19t-20.5 -45z" />
    <glyph glyph-name="aogonek.sc" horiz-adv-x="614" 
d="M424 0l-26 128h-210l-85 -128h-154l356 518l130 20l125 -538q-149 -43 -149 -119q0 -13 9 -21.5t25 -8.5q45 0 79 33h2l-28 -97q-38 -24 -92 -24q-53 0 -83 24t-30 67q0 38 30 72t101 74zM351 385l-109 -161h144z" />
    <glyph glyph-name="ae.sc" horiz-adv-x="788" 
d="M563 424l-22 -103h179l-22 -102h-178l-25 -116h210l-22 -103h-351l31 145h-169l-112 -145h-158l411 527h450l-22 -103h-200zM268 240h115l39 184h-12z" />
    <glyph glyph-name="cacute.sc" horiz-adv-x="542" 
d="M487 180l-52 -158q-60 -35 -147 -35q-113 0 -180 66.5t-67 177.5q0 130 97 219.5t233 89.5q114 0 175 -44l-45 -133h-3q-35 52 -128 52q-81 0 -134 -51t-53 -126q0 -59 38 -92t100 -33q87 0 162 67h4zM569 803l-191 -179h-61l101 179h151z" />
    <glyph glyph-name="ccircumflex.sc" horiz-adv-x="542" 
d="M487 180l-52 -158q-60 -35 -147 -35q-113 0 -180 66.5t-67 177.5q0 130 97 219.5t233 89.5q114 0 175 -44l-45 -133h-3q-35 52 -128 52q-81 0 -134 -51t-53 -126q0 -59 38 -92t100 -33q87 0 162 67h4zM467 624l-64 97l-104 -97h-71l143 179h89l66 -179h-59z" />
    <glyph glyph-name="ccaron.sc" horiz-adv-x="542" 
d="M487 180l-52 -158q-60 -35 -147 -35q-113 0 -180 66.5t-67 177.5q0 130 97 219.5t233 89.5q114 0 175 -44l-45 -133h-3q-35 52 -128 52q-81 0 -134 -51t-53 -126q0 -59 38 -92t100 -33q87 0 162 67h4zM266 803h58l63 -98l105 98h73l-143 -179h-89z" />
    <glyph glyph-name="ccedilla.sc" horiz-adv-x="542" 
d="M487 180l-52 -158q-60 -35 -147 -35h-7l-28 -40q6 2 11 2q38 0 59.5 -21t21.5 -55q0 -42 -41 -70.5t-99 -28.5q-59 0 -85 26l18 59q19 -25 67 -25q25 0 38 9.5t13 24.5q0 30 -47 30q-29 0 -48 -7l-1 1l69 101q-88 16 -138 79.5t-50 158.5q0 130 97 219.5t233 89.5
q114 0 175 -44l-45 -133h-3q-35 52 -128 52q-81 0 -134 -51t-53 -126q0 -59 38 -92t100 -33q87 0 162 67h4z" />
    <glyph glyph-name="cdotaccent.sc" horiz-adv-x="542" 
d="M487 180l-52 -158q-60 -35 -147 -35q-113 0 -180 66.5t-67 177.5q0 130 97 219.5t233 89.5q114 0 175 -44l-45 -133h-3q-35 52 -128 52q-81 0 -134 -51t-53 -126q0 -59 38 -92t100 -33q87 0 162 67h4zM405 793q33 0 52.5 -19.5t19.5 -51.5q0 -35 -25.5 -60t-62.5 -25
q-34 0 -53 19t-19 50q0 37 25.5 62t62.5 25z" />
    <glyph glyph-name="dcaron.sc" horiz-adv-x="621" 
d="M244 0h-215l112 527h183q130 0 198 -60.5t68 -162.5q0 -140 -90 -222t-256 -82zM259 421l-66 -313h52q97 0 148.5 50t51.5 138q0 56 -34 90.5t-99 34.5h-53zM255 803h58l63 -98l105 98h73l-143 -179h-89z" />
    <glyph glyph-name="dcroat.sc" horiz-adv-x="621" 
d="M244 0h-215l48 228h-62l18 80h61l47 219h183q130 0 198 -60.5t68 -162.5q0 -140 -90 -222t-256 -82zM259 421l-24 -113h85l-17 -80h-85l-25 -120h52q97 0 148.5 50t51.5 138q0 56 -34 90.5t-99 34.5h-53z" />
    <glyph glyph-name="eth.sc" horiz-adv-x="621" 
d="M244 0h-215l48 228h-62l18 80h61l47 219h183q130 0 198 -60.5t68 -162.5q0 -140 -90 -222t-256 -82zM259 421l-24 -113h85l-17 -80h-85l-25 -120h52q97 0 148.5 50t51.5 138q0 56 -34 90.5t-99 34.5h-53z" />
    <glyph glyph-name="egrave.sc" horiz-adv-x="485" 
d="M260 424l-22 -103h179l-22 -102h-178l-25 -116h210l-22 -103h-351l112 527h341l-22 -103h-200zM328 624l-117 179h134l42 -179h-59z" />
    <glyph glyph-name="eacute.sc" horiz-adv-x="485" 
d="M260 424l-22 -103h179l-22 -102h-178l-25 -116h210l-22 -103h-351l112 527h341l-22 -103h-200zM520 803l-191 -179h-61l101 179h151z" />
    <glyph glyph-name="ecircumflex.sc" horiz-adv-x="485" 
d="M260 424l-22 -103h179l-22 -102h-178l-25 -116h210l-22 -103h-351l112 527h341l-22 -103h-200zM417 624l-64 97l-104 -97h-71l143 179h89l66 -179h-59z" />
    <glyph glyph-name="edieresis.sc" horiz-adv-x="485" 
d="M260 424l-22 -103h179l-22 -102h-178l-25 -116h210l-22 -103h-351l112 527h341l-22 -103h-200zM246 776q29 0 46.5 -17t17.5 -44q0 -31 -21.5 -52t-53.5 -21q-30 0 -46.5 16.5t-16.5 44.5q0 31 21.5 52t52.5 21zM456 776q29 0 46 -17t17 -44q0 -31 -21.5 -52t-52.5 -21
q-30 0 -47 16.5t-17 44.5q0 31 21.5 52t53.5 21z" />
    <glyph glyph-name="emacron.sc" horiz-adv-x="485" 
d="M260 424l-22 -103h179l-22 -102h-178l-25 -116h210l-22 -103h-351l112 527h341l-22 -103h-200zM498 757l-21 -96h-285l21 96h285z" />
    <glyph glyph-name="ebreve.sc" horiz-adv-x="485" 
d="M260 424l-22 -103h179l-22 -102h-178l-25 -116h210l-22 -103h-351l112 527h341l-22 -103h-200zM343 715q82 0 100 86h59q-36 -175 -174 -175q-108 0 -108 114q0 26 8 61h51q-3 -15 -3 -28q0 -58 67 -58z" />
    <glyph glyph-name="edotaccent.sc" horiz-adv-x="485" 
d="M260 424l-22 -103h179l-22 -102h-178l-25 -116h210l-22 -103h-351l112 527h341l-22 -103h-200zM356 793q33 0 52.5 -19.5t19.5 -51.5q0 -35 -25.5 -60t-62.5 -25q-34 0 -53 19t-19 50q0 37 25.5 62t62.5 25z" />
    <glyph glyph-name="ecaron.sc" horiz-adv-x="485" 
d="M260 424l-22 -103h179l-22 -102h-178l-25 -116h210l-22 -103h-351l112 527h341l-22 -103h-200zM216 803h58l63 -98l105 98h73l-143 -179h-89z" />
    <glyph glyph-name="eogonek.sc" horiz-adv-x="485" 
d="M243 0h-214l112 527h341l-22 -103h-200l-22 -103h179l-22 -102h-178l-25 -116h210l-22 -103q-142 -43 -142 -119q0 -13 9 -21.5t25 -8.5q44 0 78 33h2l-27 -97q-38 -24 -92 -24t-84 24t-30 67q0 38 28.5 71.5t95.5 74.5z" />
    <glyph glyph-name="gcircumflex.sc" horiz-adv-x="585" 
d="M542 263l-43 -204q-93 -72 -220 -72q-110 0 -175 62.5t-65 171.5q0 133 94.5 226t241.5 93q123 0 193 -47l-51 -125h-3q-45 56 -141 56q-81 0 -137 -58t-56 -142q0 -58 32 -91t89 -33q39 0 70 21l30 142h141zM479 624l-64 97l-104 -97h-71l143 179h89l66 -179h-59z" />
    <glyph glyph-name="gbreve.sc" horiz-adv-x="585" 
d="M542 263l-43 -204q-93 -72 -220 -72q-110 0 -175 62.5t-65 171.5q0 133 94.5 226t241.5 93q123 0 193 -47l-51 -125h-3q-45 56 -141 56q-81 0 -137 -58t-56 -142q0 -58 32 -91t89 -33q39 0 70 21l30 142h141zM405 715q82 0 100 86h59q-36 -175 -174 -175q-108 0 -108 114
q0 26 8 61h51q-3 -15 -3 -28q0 -58 67 -58z" />
    <glyph glyph-name="gdotaccent.sc" horiz-adv-x="585" 
d="M542 263l-43 -204q-93 -72 -220 -72q-110 0 -175 62.5t-65 171.5q0 133 94.5 226t241.5 93q123 0 193 -47l-51 -125h-3q-45 56 -141 56q-81 0 -137 -58t-56 -142q0 -58 32 -91t89 -33q39 0 70 21l30 142h141zM417 793q33 0 52.5 -19.5t19.5 -51.5q0 -35 -25.5 -60
t-62.5 -25q-34 0 -53 19t-19 50q0 37 25.5 62t62.5 25z" />
    <glyph glyph-name="gcommaaccent.sc" horiz-adv-x="585" 
d="M542 263l-43 -204q-93 -72 -220 -72q-110 0 -175 62.5t-65 171.5q0 133 94.5 226t241.5 93q123 0 193 -47l-51 -125h-3q-45 56 -141 56q-81 0 -137 -58t-56 -142q0 -58 32 -91t89 -33q39 0 70 21l30 142h141zM302 -54q5 -17 5 -39q0 -37 -22.5 -67.5t-90.5 -76.5h-75
q46 44 63.5 70.5t17.5 56.5q0 18 -7 35z" />
    <glyph glyph-name="hcircumflex.sc" horiz-adv-x="670" 
d="M170 0h-141l112 527h141l-40 -190h226l40 190h141l-112 -527h-141l46 215h-226zM496 624l-64 97l-104 -97h-71l143 179h89l66 -179h-59z" />
    <glyph glyph-name="hbar.sc" horiz-adv-x="670" 
d="M170 0h-141l84 397h-61l15 72h61l13 58h141l-13 -58h226l13 58h141l-13 -58h64l-16 -72h-63l-84 -397h-141l46 215h-226zM242 337h226l12 60h-226z" />
    <glyph glyph-name="igrave.sc" horiz-adv-x="303" 
d="M170 0h-141l112 527h141zM234 624l-117 179h134l42 -179h-59z" />
    <glyph glyph-name="iacute.sc" horiz-adv-x="303" 
d="M170 0h-141l112 527h141zM425 803l-191 -179h-61l101 179h151z" />
    <glyph glyph-name="icircumflex.sc" horiz-adv-x="303" 
d="M170 0h-141l112 527h141zM323 624l-64 97l-104 -97h-71l143 179h89l66 -179h-59z" />
    <glyph glyph-name="itilde.sc" horiz-adv-x="303" 
d="M189 668q-21 0 -37.5 -14t-23.5 -36l-45 11q16 65 49.5 103.5t72.5 38.5q23 0 60 -23t53 -23q20 0 36.5 14t23.5 36l47 -11q-16 -65 -50 -103.5t-73 -38.5q-23 0 -60 23t-53 23zM170 0h-141l112 527h141z" />
    <glyph glyph-name="idieresis.sc" horiz-adv-x="303" 
d="M158 761q28 0 45 -17t17 -44q0 -31 -21 -52t-52 -21q-29 0 -45.5 16.5t-16.5 44.5q0 31 21.5 52t51.5 21zM347 761q29 0 45.5 -17t16.5 -44q0 -31 -21 -52t-52 -21q-29 0 -45.5 16.5t-16.5 44.5q0 31 21.5 52t51.5 21zM170 0h-141l112 527h141z" />
    <glyph glyph-name="imacron.sc" horiz-adv-x="303" 
d="M387 742l-20 -96h-260l20 96h260zM170 0h-141l112 527h141z" />
    <glyph glyph-name="ibreve.sc" horiz-adv-x="303" 
d="M170 0h-141l112 527h141zM248 715q82 0 100 86h59q-36 -175 -174 -175q-108 0 -108 114q0 26 8 61h51q-3 -15 -3 -28q0 -58 67 -58z" />
    <glyph glyph-name="idotaccent.sc" horiz-adv-x="303" 
d="M170 0h-141l112 527h141zM261 793q33 0 52.5 -19.5t19.5 -51.5q0 -35 -25.5 -60t-62.5 -25q-34 0 -53 19t-19 50q0 37 25.5 62t62.5 25z" />
    <glyph glyph-name="iogonek.sc" horiz-adv-x="303" 
d="M170 0q-64 -22 -95 -53.5t-31 -65.5q0 -13 9 -21.5t25 -8.5q44 0 78 33h2l-27 -97q-38 -24 -92 -24t-84 24t-30 67q0 38 24 72t80 74l112 527h141z" />
    <glyph glyph-name="ij.sc" horiz-adv-x="589" 
d="M170 0h-141l112 527h141zM429 527h141l-86 -405q-24 -113 -53 -177.5t-76 -106.5l-207 -45l-3 11q83 43 125.5 108.5t70.5 197.5z" />
    <glyph glyph-name="jcircumflex.sc" horiz-adv-x="303" 
d="M143 527h141l-86 -405q-24 -113 -53 -177.5t-76 -106.5l-207 -45l-3 11q83 43 125.5 108.5t70.5 197.5zM324 624l-64 97l-104 -97h-71l143 179h89l66 -179h-59z" />
    <glyph glyph-name="kcommaaccent.sc" horiz-adv-x="646" 
d="M170 0h-141l112 527h141l-50 -233l264 233h184l-309 -263l225 -264h-178l-195 249zM323 -54q5 -17 5 -39q0 -37 -22.5 -67.5t-90.5 -76.5h-75q46 44 63.5 70.5t17.5 56.5q0 18 -7 35z" />
    <glyph glyph-name="lacute.sc" horiz-adv-x="486" 
d="M29 0l112 527h141l-86 -405h254l-26 -122h-395zM461 803l-191 -179h-61l101 179h151z" />
    <glyph glyph-name="lcaron.sc" horiz-adv-x="486" 
d="M29 0l112 527h141l-86 -405h254l-26 -122h-395zM453 536q4 -13 4 -35q0 -39 -22.5 -76.5t-80.5 -91.5h-61q3 4 10.5 17t10 16.5t8.5 14t8 14.5l6.5 13t6 14t4.5 13.5t3.5 15t1.5 14.5t1 16q0 19 -3 33z" />
    <glyph glyph-name="lcommaaccent.sc" horiz-adv-x="486" 
d="M29 0l112 527h141l-86 -405h254l-26 -122h-395zM260 -54q5 -17 5 -39q0 -37 -22.5 -67.5t-90.5 -76.5h-75q46 44 63.5 70.5t17.5 56.5q0 18 -7 35z" />
    <glyph glyph-name="ldot.sc" horiz-adv-x="486" 
d="M29 0l112 527h141l-86 -405h254l-26 -122h-395zM423 428q33 0 52.5 -19.5t19.5 -51.5q0 -35 -25.5 -60t-62.5 -25q-34 0 -53 19t-19 50q0 37 25.5 62t62.5 25z" />
    <glyph glyph-name="lslash.sc" horiz-adv-x="486" 
d="M29 0l39 185l-71 -41l24 110l71 41l49 232h141l-30 -140l142 82l-23 -110l-142 -82l-33 -155h254l-26 -122h-395z" />
    <glyph glyph-name="nacute.sc" horiz-adv-x="701" 
d="M141 527h113l222 -332l71 332h133l-112 -527h-110l-225 335l-71 -335h-133zM624 803l-191 -179h-61l101 179h151z" />
    <glyph glyph-name="ncaron.sc" horiz-adv-x="701" 
d="M141 527h113l222 -332l71 332h133l-112 -527h-110l-225 335l-71 -335h-133zM321 803h58l63 -98l105 98h73l-143 -179h-89z" />
    <glyph glyph-name="ntilde.sc" horiz-adv-x="701" 
d="M141 527h113l222 -332l71 332h133l-112 -527h-110l-225 335l-71 -335h-133zM384 683q-21 0 -38 -14t-23 -36l-46 11q16 65 49.5 103.5t73.5 38.5q25 0 65.5 -23t57.5 -23q21 0 38 14t24 36l46 -11q-16 -65 -49.5 -103.5t-73.5 -38.5q-25 0 -66 23t-58 23z" />
    <glyph glyph-name="ncommaaccent.sc" horiz-adv-x="701" 
d="M141 527h113l222 -332l71 332h133l-112 -527h-110l-225 335l-71 -335h-133zM336 -54q5 -17 5 -39q0 -37 -22.5 -67.5t-90.5 -76.5h-75q46 44 63.5 70.5t17.5 56.5q0 18 -7 35z" />
    <glyph glyph-name="eng.sc" horiz-adv-x="701" 
d="M680 527l-120 -567q-20 -92 -76.5 -144.5t-138.5 -52.5q-55 0 -95 21l16 116q21 -26 65 -26q37 0 63 25t36 71l11 55l-208 310l-71 -335h-133l112 527h113l222 -332l71 332h133z" />
    <glyph glyph-name="ograve.sc" horiz-adv-x="637" 
d="M287 98q76 3 127 66.5t51 145.5q0 52 -29.5 84.5t-78.5 32.5q-72 0 -125 -59.5t-53 -142.5q0 -56 29 -91.5t79 -35.5zM280 -15q-113 0 -177 64.5t-64 172.5q0 138 92.5 228t231.5 90q114 0 178 -59t64 -163q0 -138 -92.5 -235.5t-232.5 -97.5zM382 624l-117 179h134
l42 -179h-59z" />
    <glyph glyph-name="oacute.sc" horiz-adv-x="637" 
d="M287 98q76 3 127 66.5t51 145.5q0 52 -29.5 84.5t-78.5 32.5q-72 0 -125 -59.5t-53 -142.5q0 -56 29 -91.5t79 -35.5zM280 -15q-113 0 -177 64.5t-64 172.5q0 138 92.5 228t231.5 90q114 0 178 -59t64 -163q0 -138 -92.5 -235.5t-232.5 -97.5zM573 803l-191 -179h-61
l101 179h151z" />
    <glyph glyph-name="ocircumflex.sc" horiz-adv-x="637" 
d="M287 98q76 3 127 66.5t51 145.5q0 52 -29.5 84.5t-78.5 32.5q-72 0 -125 -59.5t-53 -142.5q0 -56 29 -91.5t79 -35.5zM280 -15q-113 0 -177 64.5t-64 172.5q0 138 92.5 228t231.5 90q114 0 178 -59t64 -163q0 -138 -92.5 -235.5t-232.5 -97.5zM471 624l-64 97l-104 -97
h-71l143 179h89l66 -179h-59z" />
    <glyph glyph-name="otilde.sc" horiz-adv-x="637" 
d="M287 98q76 3 127 66.5t51 145.5q0 52 -29.5 84.5t-78.5 32.5q-72 0 -125 -59.5t-53 -142.5q0 -56 29 -91.5t79 -35.5zM280 -15q-113 0 -177 64.5t-64 172.5q0 138 92.5 228t231.5 90q114 0 178 -59t64 -163q0 -138 -92.5 -235.5t-232.5 -97.5zM333 683q-21 0 -38 -14
t-23 -36l-46 11q16 65 49.5 103.5t73.5 38.5q25 0 65.5 -23t57.5 -23q21 0 38 14t24 36l46 -11q-16 -65 -49.5 -103.5t-73.5 -38.5q-25 0 -66 23t-58 23z" />
    <glyph glyph-name="odieresis.sc" horiz-adv-x="637" 
d="M287 98q76 3 127 66.5t51 145.5q0 52 -29.5 84.5t-78.5 32.5q-72 0 -125 -59.5t-53 -142.5q0 -56 29 -91.5t79 -35.5zM280 -15q-113 0 -177 64.5t-64 172.5q0 138 92.5 228t231.5 90q114 0 178 -59t64 -163q0 -138 -92.5 -235.5t-232.5 -97.5zM299 776q29 0 46.5 -17
t17.5 -44q0 -31 -21.5 -52t-53.5 -21q-30 0 -46.5 16.5t-16.5 44.5q0 31 21.5 52t52.5 21zM509 776q29 0 46 -17t17 -44q0 -31 -21.5 -52t-52.5 -21q-30 0 -47 16.5t-17 44.5q0 31 21.5 52t53.5 21z" />
    <glyph glyph-name="omacron.sc" horiz-adv-x="637" 
d="M287 98q76 3 127 66.5t51 145.5q0 52 -29.5 84.5t-78.5 32.5q-72 0 -125 -59.5t-53 -142.5q0 -56 29 -91.5t79 -35.5zM280 -15q-113 0 -177 64.5t-64 172.5q0 138 92.5 228t231.5 90q114 0 178 -59t64 -163q0 -138 -92.5 -235.5t-232.5 -97.5zM551 757l-21 -96h-285
l21 96h285z" />
    <glyph glyph-name="obreve.sc" horiz-adv-x="637" 
d="M287 98q76 3 127 66.5t51 145.5q0 52 -29.5 84.5t-78.5 32.5q-72 0 -125 -59.5t-53 -142.5q0 -56 29 -91.5t79 -35.5zM280 -15q-113 0 -177 64.5t-64 172.5q0 138 92.5 228t231.5 90q114 0 178 -59t64 -163q0 -138 -92.5 -235.5t-232.5 -97.5zM396 715q82 0 100 86h59
q-36 -175 -174 -175q-108 0 -108 114q0 26 8 61h51q-3 -15 -3 -28q0 -58 67 -58z" />
    <glyph glyph-name="ohungarumlaut.sc" horiz-adv-x="637" 
d="M287 98q76 3 127 66.5t51 145.5q0 52 -29.5 84.5t-78.5 32.5q-72 0 -125 -59.5t-53 -142.5q0 -56 29 -91.5t79 -35.5zM280 -15q-113 0 -177 64.5t-64 172.5q0 138 92.5 228t231.5 90q114 0 178 -59t64 -163q0 -138 -92.5 -235.5t-232.5 -97.5zM350 803h132l-159 -179h-60
zM505 803h133l-159 -179h-60z" />
    <glyph glyph-name="oslash.sc" horiz-adv-x="637" 
d="M280 -15q-92 0 -154 45l-36 -37l-72 20l63 63q-42 58 -42 146q0 138 92.5 228t231.5 90q89 0 148 -37l38 38l71 -20l-61 -60q46 -55 46 -143q0 -138 -92.5 -235.5t-232.5 -97.5zM287 98q76 3 127 66.5t51 145.5q0 28 -9 51l-239 -237q28 -26 70 -26zM179 225q0 -28 7 -49
l234 232q-27 19 -63 19q-72 0 -125 -59.5t-53 -142.5z" />
    <glyph glyph-name="oe.sc" horiz-adv-x="788" 
d="M563 424l-22 -103h179l-22 -102h-178l-25 -116h210l-22 -103h-394q-116 0 -183 62t-67 165q0 132 96.5 216t238.5 84h411l-22 -103h-200zM180 227q0 -58 36.5 -91t99.5 -33h38l68 321h-37q-90 0 -147.5 -54.5t-57.5 -142.5z" />
    <glyph glyph-name="racute.sc" horiz-adv-x="568" 
d="M29 0l112 527h202q89 0 136.5 -37t47.5 -108q0 -130 -138 -177l120 -205h-165l-96 185h-39l-39 -185h-141zM261 426l-33 -155h18q71 0 105.5 23.5t34.5 73.5q0 58 -73 58h-52zM544 803l-191 -179h-61l101 179h151z" />
    <glyph glyph-name="rcaron.sc" horiz-adv-x="568" 
d="M29 0l112 527h202q89 0 136.5 -37t47.5 -108q0 -130 -138 -177l120 -205h-165l-96 185h-39l-39 -185h-141zM261 426l-33 -155h18q71 0 105.5 23.5t34.5 73.5q0 58 -73 58h-52zM240 803h58l63 -98l105 98h73l-143 -179h-89z" />
    <glyph glyph-name="rcommaaccent.sc" horiz-adv-x="568" 
d="M29 0l112 527h202q89 0 136.5 -37t47.5 -108q0 -130 -138 -177l120 -205h-165l-96 185h-39l-39 -185h-141zM261 426l-33 -155h18q71 0 105.5 23.5t34.5 73.5q0 58 -73 58h-52zM278 -54q5 -17 5 -39q0 -37 -22.5 -67.5t-90.5 -76.5h-75q46 44 63.5 70.5t17.5 56.5
q0 18 -7 35z" />
    <glyph glyph-name="sacute.sc" horiz-adv-x="468" 
d="M26 162q71 -60 165 -60q41 0 62.5 14t21.5 38q0 19 -16 33.5t-55 29.5q-66 24 -96.5 58.5t-30.5 84.5q0 78 60.5 129t156.5 51q85 0 152 -32l-27 -126q-62 52 -133 52q-39 0 -57.5 -15t-18.5 -37q0 -17 15.5 -30t53.5 -29q67 -26 97.5 -61t30.5 -84q0 -90 -66.5 -140.5
t-168.5 -50.5q-104 0 -162 34zM504 803l-191 -179h-61l101 179h151z" />
    <glyph glyph-name="scaron.sc" horiz-adv-x="468" 
d="M26 162q71 -60 165 -60q41 0 62.5 14t21.5 38q0 19 -16 33.5t-55 29.5q-66 24 -96.5 58.5t-30.5 84.5q0 78 60.5 129t156.5 51q85 0 152 -32l-27 -126q-62 52 -133 52q-39 0 -57.5 -15t-18.5 -37q0 -17 15.5 -30t53.5 -29q67 -26 97.5 -61t30.5 -84q0 -90 -66.5 -140.5
t-168.5 -50.5q-104 0 -162 34zM200 803h58l63 -98l105 98h73l-143 -179h-89z" />
    <glyph glyph-name="scircumflex.sc" horiz-adv-x="468" 
d="M26 162q71 -60 165 -60q41 0 62.5 14t21.5 38q0 19 -16 33.5t-55 29.5q-66 24 -96.5 58.5t-30.5 84.5q0 78 60.5 129t156.5 51q85 0 152 -32l-27 -126q-62 52 -133 52q-39 0 -57.5 -15t-18.5 -37q0 -17 15.5 -30t53.5 -29q67 -26 97.5 -61t30.5 -84q0 -90 -66.5 -140.5
t-168.5 -50.5q-104 0 -162 34zM401 624l-64 97l-104 -97h-71l143 179h89l66 -179h-59z" />
    <glyph glyph-name="scedilla.sc" horiz-adv-x="468" 
d="M26 162q71 -60 165 -60q41 0 62.5 14t21.5 38q0 19 -16 33.5t-55 29.5q-66 24 -96.5 58.5t-30.5 84.5q0 78 60.5 129t156.5 51q85 0 152 -32l-27 -126q-62 52 -133 52q-39 0 -57.5 -15t-18.5 -37q0 -17 15.5 -30t53.5 -29q67 -26 97.5 -61t30.5 -84q0 -83 -57 -132.5
t-148 -57.5l-29 -41q6 2 11 2q38 0 59.5 -21t21.5 -55q0 -42 -41 -70.5t-99 -28.5q-59 0 -85 26l18 59q19 -25 67 -25q25 0 38 9.5t13 24.5q0 30 -47 30q-29 0 -48 -7l-1 1l65 96q-89 5 -135 33z" />
    <glyph glyph-name="uni0219.sc" horiz-adv-x="468" 
d="M26 162q71 -60 165 -60q41 0 62.5 14t21.5 38q0 19 -16 33.5t-55 29.5q-66 24 -96.5 58.5t-30.5 84.5q0 78 60.5 129t156.5 51q85 0 152 -32l-27 -126q-62 52 -133 52q-39 0 -57.5 -15t-18.5 -37q0 -17 15.5 -30t53.5 -29q67 -26 97.5 -61t30.5 -84q0 -90 -66.5 -140.5
t-168.5 -50.5q-104 0 -162 34zM222 -54q5 -17 5 -39q0 -37 -22.5 -67.5t-90.5 -76.5h-75q46 44 63.5 70.5t17.5 56.5q0 18 -7 35z" />
    <glyph glyph-name="tcaron.sc" horiz-adv-x="536" 
d="M286 0h-141l87 405h-184l26 122h508l-26 -122h-184zM237 803h58l63 -98l105 98h73l-143 -179h-89z" />
    <glyph glyph-name="uni0163.sc" horiz-adv-x="536" 
d="M286 0h-141l87 405h-184l26 122h508l-26 -122h-184zM255 -54q5 -17 5 -39q0 -37 -22.5 -67.5t-90.5 -76.5h-75q46 44 63.5 70.5t17.5 56.5q0 18 -7 35z" />
    <glyph glyph-name="uni021B.sc" horiz-adv-x="536" 
d="M286 0h-141l87 405h-184l26 122h508l-26 -122h-184zM255 -54q5 -17 5 -39q0 -37 -22.5 -67.5t-90.5 -76.5h-75q46 44 63.5 70.5t17.5 56.5q0 18 -7 35z" />
    <glyph glyph-name="tbar.sc" horiz-adv-x="536" 
d="M286 0h-141l44 204h-89l18 80h88l26 121h-184l26 122h508l-26 -122h-184l-26 -121h89l-17 -80h-89z" />
    <glyph glyph-name="ugrave.sc" horiz-adv-x="643" 
d="M134 527h141l-63 -296q-5 -25 -5 -41q0 -40 23 -60t62 -20q46 0 82 28.5t48 84.5l65 304h141l-65 -304q-25 -120 -102 -179.5t-178 -59.5t-160.5 45t-59.5 136q0 34 8 66zM393 624l-117 179h134l42 -179h-59z" />
    <glyph glyph-name="uacute.sc" horiz-adv-x="643" 
d="M134 527h141l-63 -296q-5 -25 -5 -41q0 -40 23 -60t62 -20q46 0 82 28.5t48 84.5l65 304h141l-65 -304q-25 -120 -102 -179.5t-178 -59.5t-160.5 45t-59.5 136q0 34 8 66zM585 803l-191 -179h-61l101 179h151z" />
    <glyph glyph-name="ucircumflex.sc" horiz-adv-x="643" 
d="M134 527h141l-63 -296q-5 -25 -5 -41q0 -40 23 -60t62 -20q46 0 82 28.5t48 84.5l65 304h141l-65 -304q-25 -120 -102 -179.5t-178 -59.5t-160.5 45t-59.5 136q0 34 8 66zM482 624l-64 97l-104 -97h-71l143 179h89l66 -179h-59z" />
    <glyph glyph-name="utilde.sc" horiz-adv-x="643" 
d="M134 527h141l-63 -296q-5 -25 -5 -41q0 -40 23 -60t62 -20q46 0 82 28.5t48 84.5l65 304h141l-65 -304q-25 -120 -102 -179.5t-178 -59.5t-160.5 45t-59.5 136q0 34 8 66zM345 683q-21 0 -38 -14t-23 -36l-46 11q16 65 49.5 103.5t73.5 38.5q25 0 65.5 -23t57.5 -23
q21 0 38 14t24 36l46 -11q-16 -65 -49.5 -103.5t-73.5 -38.5q-25 0 -66 23t-58 23z" />
    <glyph glyph-name="udieresis.sc" horiz-adv-x="643" 
d="M134 527h141l-63 -296q-5 -25 -5 -41q0 -40 23 -60t62 -20q46 0 82 28.5t48 84.5l65 304h141l-65 -304q-25 -120 -102 -179.5t-178 -59.5t-160.5 45t-59.5 136q0 34 8 66zM311 776q29 0 46.5 -17t17.5 -44q0 -31 -21.5 -52t-53.5 -21q-30 0 -46.5 16.5t-16.5 44.5
q0 31 21.5 52t52.5 21zM521 776q29 0 46 -17t17 -44q0 -31 -21.5 -52t-52.5 -21q-30 0 -47 16.5t-17 44.5q0 31 21.5 52t53.5 21z" />
    <glyph glyph-name="umacron.sc" horiz-adv-x="643" 
d="M134 527h141l-63 -296q-5 -25 -5 -41q0 -40 23 -60t62 -20q46 0 82 28.5t48 84.5l65 304h141l-65 -304q-25 -120 -102 -179.5t-178 -59.5t-160.5 45t-59.5 136q0 34 8 66zM563 757l-21 -96h-285l21 96h285z" />
    <glyph glyph-name="ubreve.sc" horiz-adv-x="643" 
d="M134 527h141l-63 -296q-5 -25 -5 -41q0 -40 23 -60t62 -20q46 0 82 28.5t48 84.5l65 304h141l-65 -304q-25 -120 -102 -179.5t-178 -59.5t-160.5 45t-59.5 136q0 34 8 66zM408 715q82 0 100 86h59q-36 -175 -174 -175q-108 0 -108 114q0 26 8 61h51q-3 -15 -3 -28
q0 -58 67 -58z" />
    <glyph glyph-name="uring.sc" horiz-adv-x="643" 
d="M134 527h141l-63 -296q-5 -25 -5 -41q0 -40 23 -60t62 -20q46 0 82 28.5t48 84.5l65 304h141l-65 -304q-25 -120 -102 -179.5t-178 -59.5t-160.5 45t-59.5 136q0 34 8 66zM303 705q0 46 38 82t83 36q42 0 69.5 -29t27.5 -70q0 -46 -37.5 -82t-83.5 -36q-42 0 -69.5 29
t-27.5 70zM356 705q0 -19 12.5 -32.5t31.5 -13.5q27 0 47.5 19.5t20.5 45.5q0 19 -12.5 32t-31.5 13q-27 0 -47.5 -19t-20.5 -45z" />
    <glyph glyph-name="uhungarumlaut.sc" horiz-adv-x="643" 
d="M134 527h141l-63 -296q-5 -25 -5 -41q0 -40 23 -60t62 -20q46 0 82 28.5t48 84.5l65 304h141l-65 -304q-25 -120 -102 -179.5t-178 -59.5t-160.5 45t-59.5 136q0 34 8 66zM362 803h132l-159 -179h-60zM517 803h133l-159 -179h-60z" />
    <glyph glyph-name="uogonek.sc" horiz-adv-x="643" 
d="M134 527h141l-63 -296q-5 -25 -5 -41q0 -40 23 -60t62 -20q46 0 82 28.5t48 84.5l65 304h141l-65 -304q-20 -94 -75 -154q-19 -22 -54 -45q-66 -44 -94 -76t-28 -67q0 -13 9 -21.5t25 -8.5q45 0 79 33h2l-28 -97q-38 -24 -92 -24q-53 0 -83 24t-30 67q0 35 24.5 65
t83.5 66q-7 -1 -19 -1q-101 0 -160.5 45t-59.5 136q0 34 8 66z" />
    <glyph glyph-name="wgrave.sc" horiz-adv-x="876" 
d="M478 0l-46 229l-149 -229h-113l-110 527h141l59 -354l140 218l-26 136h139l53 -348l214 348h156l-343 -527h-115zM487 624l-117 179h134l42 -179h-59z" />
    <glyph glyph-name="wacute.sc" horiz-adv-x="876" 
d="M478 0l-46 229l-149 -229h-113l-110 527h141l59 -354l140 218l-26 136h139l53 -348l214 348h156l-343 -527h-115zM678 803l-191 -179h-61l101 179h151z" />
    <glyph glyph-name="wcircumflex.sc" horiz-adv-x="876" 
d="M478 0l-46 229l-149 -229h-113l-110 527h141l59 -354l140 218l-26 136h139l53 -348l214 348h156l-343 -527h-115zM575 624l-64 97l-104 -97h-71l143 179h89l66 -179h-59z" />
    <glyph glyph-name="wdieresis.sc" horiz-adv-x="876" 
d="M478 0l-46 229l-149 -229h-113l-110 527h141l59 -354l140 218l-26 136h139l53 -348l214 348h156l-343 -527h-115zM404 776q29 0 46.5 -17t17.5 -44q0 -31 -21.5 -52t-53.5 -21q-30 0 -46.5 16.5t-16.5 44.5q0 31 21.5 52t52.5 21zM614 776q29 0 46 -17t17 -44
q0 -31 -21.5 -52t-52.5 -21q-30 0 -47 16.5t-17 44.5q0 31 21.5 52t53.5 21z" />
    <glyph glyph-name="ygrave.sc" horiz-adv-x="592" 
d="M658 527l-303 -309l-47 -218h-141l47 220l-158 307h152l89 -207l185 207h176zM349 624l-117 179h134l42 -179h-59z" />
    <glyph glyph-name="yacute.sc" horiz-adv-x="592" 
d="M658 527l-303 -309l-47 -218h-141l47 220l-158 307h152l89 -207l185 207h176zM540 803l-191 -179h-61l101 179h151z" />
    <glyph glyph-name="ycircumflex.sc" horiz-adv-x="592" 
d="M658 527l-303 -309l-47 -218h-141l47 220l-158 307h152l89 -207l185 207h176zM438 624l-64 97l-104 -97h-71l143 179h89l66 -179h-59z" />
    <glyph glyph-name="ydieresis.sc" horiz-adv-x="592" 
d="M658 527l-303 -309l-47 -218h-141l47 220l-158 307h152l89 -207l185 207h176zM267 776q29 0 46.5 -17t17.5 -44q0 -31 -21.5 -52t-53.5 -21q-30 0 -46.5 16.5t-16.5 44.5q0 31 21.5 52t52.5 21zM477 776q29 0 46 -17t17 -44q0 -31 -21.5 -52t-52.5 -21q-30 0 -47 16.5
t-17 44.5q0 31 21.5 52t53.5 21z" />
    <glyph glyph-name="zacute.sc" horiz-adv-x="561" 
d="M476 0h-523l378 401h-266l40 126h499l-378 -400h297zM534 803l-191 -179h-61l101 179h151z" />
    <glyph glyph-name="zcaron.sc" horiz-adv-x="561" 
d="M476 0h-523l378 401h-266l40 126h499l-378 -400h297zM231 803h58l63 -98l105 98h73l-143 -179h-89z" />
    <glyph glyph-name="zdotaccent.sc" horiz-adv-x="561" 
d="M476 0h-523l378 401h-266l40 126h499l-378 -400h297zM370 793q33 0 52.5 -19.5t19.5 -51.5q0 -35 -25.5 -60t-62.5 -25q-34 0 -53 19t-19 50q0 37 25.5 62t62.5 25z" />
    <glyph glyph-name="germandbls.sc" horiz-adv-x="641" 
d="M607 476l-118 -162q47 -13 72 -47.5t25 -85.5q0 -80 -63.5 -136.5t-160.5 -56.5q-81 0 -123 31l12 117q37 -35 106 -35q46 0 73 22.5t27 55.5q0 56 -89 56q-42 0 -67 -7l-1 2l139 186q-25 11 -58 11q-54 0 -97 -35t-56 -97l-63 -295h-141l65 306q22 105 105 169.5
t194 64.5q130 0 219 -64z" />
    <glyph glyph-name="thorn.sc" horiz-adv-x="526" 
d="M170 0h-141l112 527h141l-18 -84h41q98 0 151 -39.5t53 -116.5q0 -96 -70.5 -148t-200.5 -52h-50zM244 347l-34 -157h35q57 0 88.5 25.5t31.5 70.5q0 61 -91 61h-30z" />
    <glyph glyph-name="fi.sc" horiz-adv-x="756" 
d="M250 412l-25 -116h185l-24 -114h-185l-39 -182h-133l112 527h349l-24 -115h-216zM623 0h-141l112 527h141z" />
    <glyph glyph-name="fl.sc" horiz-adv-x="938" 
d="M250 412l-25 -116h185l-24 -114h-185l-39 -182h-133l112 527h349l-24 -115h-216zM482 0l112 527h141l-86 -405h254l-26 -122h-395z" />
    <glyph glyph-name="ampersand.sc" horiz-adv-x="617" 
d="M308 204l29 119q148 7 274 46l-29 -116q-39 -3 -82 -9v-11q0 -111 -72.5 -180.5t-191.5 -69.5q-95 0 -147 49t-52 126q0 56 34 99t98 66q-28 25 -28 76q0 59 56 98.5t137 39.5q69 0 121 -20l-37 -110q-32 22 -91 22q-43 0 -68.5 -20t-25.5 -53q0 -34 26 -60
q-59 -28 -79.5 -55.5t-20.5 -64.5q0 -35 23.5 -57.5t69.5 -22.5q67 0 106 35t39 94v2q-58 -13 -89 -23z" />
    <glyph glyph-name="exclam.sc" horiz-adv-x="288" 
d="M106 116q28 0 44.5 -16.5t16.5 -43.5q0 -30 -21 -50.5t-51 -20.5q-28 0 -44 16.5t-16 43.5q0 30 20 50.5t51 20.5zM121 520l173 17q-59 -207 -149 -372l-43 4q-8 69 -2 167t21 184z" />
    <glyph glyph-name="question.sc" horiz-adv-x="357" 
d="M83 116q28 0 44.5 -16.5t16.5 -43.5q0 -30 -21 -50.5t-51 -20.5q-28 0 -44 16.5t-16 43.5q0 30 20 50.5t51 20.5zM149 171l-101 -17l29 138q79 3 122 28t43 67q0 27 -21 41.5t-59 14.5q-44 0 -82 -15l39 105q29 7 65 7q82 0 129.5 -35.5t47.5 -106.5q0 -72 -54 -117
t-147 -61z" />
    <glyph glyph-name="exclamdown.sc" horiz-adv-x="288" 
d="M190 407q-28 0 -44.5 17t-16.5 44q0 30 20.5 50.5t50.5 20.5q29 0 45 -16.5t16 -43.5q0 -30 -20.5 -51t-50.5 -21zM175 4l-174 -18q26 91 68.5 196.5t81.5 176.5l43 -5q8 -66 2.5 -166.5t-21.5 -183.5z" />
    <glyph glyph-name="questiondown.sc" horiz-adv-x="357" 
d="M281 409q-28 0 -44.5 16.5t-16.5 43.5q0 31 21 51.5t51 20.5q28 0 44 -16.5t16 -43.5q0 -31 -20 -51.5t-51 -20.5zM215 355l102 17l-30 -139q-79 -3 -122 -28t-43 -67q0 -27 21.5 -41t58.5 -14q48 0 83 15l-40 -106q-34 -8 -65 -8q-82 0 -129.5 36t-47.5 107
q0 72 54 117.5t147 61.5z" />
    <glyph glyph-name="percent.sc" horiz-adv-x="707" 
d="M629 527l-454 -527h-89l453 527h90zM169 240q-53 0 -82.5 26.5t-29.5 76.5q0 68 56.5 126t122.5 58q53 0 82 -26.5t29 -76.5q0 -68 -56 -126t-122 -58zM235 461q-40 0 -72 -35.5t-32 -79.5q0 -40 39 -40q40 0 71 35.5t31 80.5q0 39 -37 39zM479 0q-53 0 -82 26.5
t-29 76.5q0 69 56 126.5t123 57.5q52 0 81 -26.5t29 -76.5q0 -68 -56 -126t-122 -58zM545 221q-40 0 -71.5 -35.5t-31.5 -79.5q0 -40 39 -40t70.5 36t31.5 80q0 39 -38 39z" />
    <glyph glyph-name="perthousand.sc" horiz-adv-x="1015" 
d="M629 527l-454 -527h-89l453 527h90zM169 240q-53 0 -82.5 26.5t-29.5 76.5q0 68 56.5 126t122.5 58q53 0 82 -26.5t29 -76.5q0 -68 -56 -126t-122 -58zM235 461q-40 0 -72 -35.5t-32 -79.5q0 -40 39 -40q40 0 71 35.5t31 80.5q0 39 -37 39zM479 0q-53 0 -82 26.5
t-29 76.5q0 69 56 126.5t123 57.5q52 0 81 -26.5t29 -76.5q0 -68 -56 -126t-122 -58zM545 221q-40 0 -71.5 -35.5t-31.5 -79.5q0 -40 39 -40t70.5 36t31.5 80q0 39 -38 39zM787 0q-53 0 -82.5 26.5t-29.5 76.5q0 68 56 126t123 58q53 0 82 -26.5t29 -76.5q0 -68 -56 -126
t-122 -58zM853 221q-40 0 -71.5 -35.5t-31.5 -79.5q0 -40 38 -40q40 0 71.5 36t31.5 80q0 39 -38 39z" />
    <glyph glyph-name="dollar.sc" horiz-adv-x="506" 
d="M363 617l-17 -80q68 -7 124 -33l-27 -119q-47 42 -118 54l-28 -131q72 -27 103 -63t31 -88q0 -75 -56.5 -120t-145.5 -52l-16 -75h-67l16 76q-96 6 -148 42l21 125q62 -59 148 -68l31 147q-69 26 -98.5 60t-29.5 85q0 65 55.5 112t137.5 51l17 77h67zM327 150
q0 35 -51 59l-26 -125q77 9 77 66zM190 384q0 -31 45 -52l24 110q-69 -8 -69 -58z" />
    <glyph glyph-name="Euro.sc" horiz-adv-x="506" 
d="M17 292l33 63h38q35 86 112.5 135.5t179.5 49.5q98 0 159 -30l-53 -99q-38 28 -101 28q-116 0 -170 -84h241l-33 -63h-234q-7 -28 -8 -55h211l-33 -63h-172q23 -86 131 -86q74 0 141 50h3l-43 -127q-45 -24 -112 -24q-103 0 -165.5 48.5t-75.5 138.5h-86l34 63h49
q1 28 6 55h-52z" />
    <glyph glyph-name="cent.sc" horiz-adv-x="506" 
d="M492 609l-51 -111q45 -12 78 -37l-53 -110q-32 29 -73 40l-122 -265q105 3 186 76h3l-53 -147q-67 -40 -158 -40q-19 0 -28 1l-48 -106h-78l56 122q-117 48 -117 198q0 119 85.5 200t225.5 81q17 0 25 -1l45 99h77zM147 231q0 -67 53 -92l119 261q-81 -2 -126.5 -49.5
t-45.5 -119.5z" />
    <glyph glyph-name="sterling.sc" horiz-adv-x="506" 
d="M401 310l-46 -85q-97 5 -123 6q-1 -16 -5 -41q-4 -33 -18 -66q68 -35 111 -35q57 0 112 50h3l-39 -129q-37 -26 -77 -26q-34 0 -64 12t-57 29.5t-41 22.5q-55 -56 -103 -56q-29 0 -45 16.5t-16 42.5q0 37 42.5 66.5t99.5 29.5h2q14 29 14 68v14q-46 -3 -104 -11l43 89
q16 2 52 4q-5 40 -5 68q0 71 51.5 116t131.5 45q87 0 159 -49l-45 -106q-52 49 -116 49q-35 0 -55 -18.5t-24 -51.5q-5 -27 -5 -49h6q89 0 161 -5z" />
    <glyph glyph-name="florin.sc" horiz-adv-x="506" 
d="M-47 -39l28 107q19 -21 59 -21q38 0 66.5 33.5t53.5 109.5l17 54h-103l18 85h113l1 3q35 108 93 158t142 50q65 0 108 -31l-35 -95q-18 24 -58 24q-39 0 -65 -25t-45 -84h135l-18 -85h-146l-25 -75q-41 -124 -100 -178.5t-139 -54.5q-64 0 -100 25z" />
    <glyph glyph-name="yen.sc" horiz-adv-x="506" 
d="M485 224l-17 -79h-172l-31 -145h-140l30 145h-159l17 79h159l-25 69h-119l16 79h74l-57 155h126l67 -220l170 220h143l-130 -155h79l-17 -79h-128l-58 -69h172z" />
    <glyph glyph-name="uni20B9.sc" horiz-adv-x="506" 
d="M38 302l50 79h212q-10 68 -117 68h-115l50 78h419l-50 -78h-92q23 -27 26 -68h86l-51 -79h-48q-37 -85 -156 -128l124 -174h-181l-144 218l1 4q184 18 230 80h-244z" />
    <glyph glyph-name="uni20BA.sc" horiz-adv-x="506" 
d="M45 287l18 84l65 28l27 128h131l-16 -74l123 51l-18 -84l-123 -51l-14 -66l122 51l-18 -84l-122 -51l-23 -108q10 -2 12 -2q54 0 103.5 34t84.5 102l92 -72q-44 -89 -124 -136.5t-180 -47.5q-85 0 -140 21l33 155l-65 -28l18 84l65 28l14 66z" />
    <glyph glyph-name="zero.onumprop" horiz-adv-x="660" 
d="M292 -14q-116 0 -182.5 61t-66.5 173q0 149 93.5 235t238.5 86q116 0 182.5 -61t66.5 -172q0 -149 -93.5 -235.5t-238.5 -86.5zM298 96q81 0 131.5 58t50.5 155q0 59 -29 90.5t-82 31.5q-81 0 -131.5 -58t-50.5 -155q0 -59 29 -90.5t82 -31.5z" />
    <glyph glyph-name="one.onumprop" horiz-adv-x="379" 
d="M233 0h-145l86 402l-124 -7l46 132h249z" />
    <glyph glyph-name="two.onumprop" horiz-adv-x="501" 
d="M320 194q-48 -38 -109 -74h227l-38 -120h-415l23 104q117 64 207 133q55 43 74 70t19 58q0 25 -18 39.5t-52 14.5q-81 0 -156 -47l49 138q65 30 151 30q84 0 126.5 -40.5t42.5 -105.5q0 -52 -27 -95t-104 -105z" />
    <glyph glyph-name="three.onumprop" horiz-adv-x="523" 
d="M484 377q0 -124 -151 -189q97 -39 97 -140q0 -105 -80.5 -169.5t-218.5 -64.5q-98 0 -173 36l19 122q60 -35 148 -35q76 0 120 32t44 84q0 36 -29 56.5t-81 20.5q-78 0 -126 -13l51 133q33 -3 81 -3q73 0 114 29t41 80q0 29 -21.5 47t-59.5 18q-87 0 -159 -44l54 141
q59 22 128 22q96 0 149 -44t53 -119z" />
    <glyph glyph-name="four.onumprop" horiz-adv-x="643" 
d="M290 -187l39 187h-329l20 95l403 432h153l-88 -411h100l-24 -116h-100l-40 -187h-134zM146 116h208l61 287z" />
    <glyph glyph-name="five.onumprop" horiz-adv-x="497" 
d="M509 527l-43 -124h-225l-45 -131q1 0 5 0.5t6 0.5q100 0 156.5 -50t56.5 -136q0 -124 -104.5 -202.5t-279.5 -78.5q-52 0 -96 9l47 132q33 -6 71 -6q111 0 168 38t57 103q0 38 -33 61.5t-99 23.5q-62 0 -114 -13l125 373h347z" />
    <glyph glyph-name="six.onumprop" horiz-adv-x="615" 
d="M587 637q-137 -3 -233 -61.5t-145 -153.5q68 44 149 44q97 0 152 -55.5t55 -150.5q0 -113 -82.5 -193.5t-202.5 -80.5q-117 0 -177.5 66.5t-60.5 171.5q0 108 41 205.5t116 173t189 122t251 50.5zM306 368q-78 0 -134 -59q-7 -35 -7 -76q0 -56 31 -89t86 -33
q59 0 98.5 40.5t39.5 101.5q0 53 -30 84t-84 31z" />
    <glyph glyph-name="seven.onumprop" horiz-adv-x="531" 
d="M105 527h462q-244 -417 -374 -714h-168q152 296 343 577l-331 -10z" />
    <glyph glyph-name="eight.onumprop" horiz-adv-x="614" 
d="M556 218q0 -96 -85 -163.5t-201 -67.5q-108 0 -170 51t-62 136q0 153 205 219q-98 61 -98 160q0 85 77.5 152t187.5 67q102 0 157 -51.5t55 -127.5q0 -134 -175 -197q109 -71 109 -178zM417 227q0 69 -91 111q-75 -23 -113.5 -60.5t-38.5 -82.5q0 -37 28 -61.5t73 -24.5
q61 0 101.5 34t40.5 84zM282 548q0 -64 80 -100q128 47 128 132q0 33 -24 54t-65 21q-51 0 -85 -31t-34 -76z" />
    <glyph glyph-name="nine.onumprop" horiz-adv-x="596" 
d="M101 -220l-66 120q213 76 308 179q-27 -7 -60 -7q-110 0 -173.5 55.5t-63.5 151.5q0 103 83 182t195 79q118 0 180 -67t62 -177q0 -162 -110.5 -289t-354.5 -227zM328 162q44 0 80 15q21 54 21 114q0 57 -30.5 91t-82.5 34q-55 0 -93.5 -38t-38.5 -94q0 -54 37.5 -88
t106.5 -34z" />
    <glyph glyph-name="zero.onumtab" 
d="M274 -14q-103 0 -162.5 59.5t-59.5 169.5q0 150 86.5 237.5t218.5 87.5q103 0 162.5 -59.5t59.5 -168.5q0 -149 -86.5 -237.5t-218.5 -88.5zM280 96q72 0 118 60.5t46 157.5q0 56 -24.5 86t-68.5 30q-71 0 -117 -60.5t-46 -157.5q0 -56 24 -86t68 -30z" />
    <glyph glyph-name="one.onumtab" 
d="M490 0h-414l25 120h135l60 282l-145 -7l45 132h271l-87 -407h135z" />
    <glyph glyph-name="two.onumtab" 
d="M374 184q-39 -28 -105 -64h244l-38 -120h-445l22 104q122 56 219 120q63 41 89 73.5t26 67.5q0 25 -20.5 39.5t-58.5 14.5q-85 0 -173 -48l49 134q66 35 169 35q88 0 132.5 -39t44.5 -103q0 -107 -155 -214z" />
    <glyph glyph-name="three.onumtab" 
d="M535 377q0 -124 -150 -189q96 -40 96 -140q0 -105 -83 -169.5t-224 -64.5q-96 0 -173 36l19 122q60 -35 149 -35q79 0 125 32t46 84q0 36 -31 56.5t-86 20.5q-79 0 -126 -13l51 133q33 -3 81 -3q77 0 119.5 29t42.5 80q0 29 -23.5 47t-65.5 18q-86 0 -159 -44l55 141
q59 22 127 22q100 0 155 -44t55 -119z" />
    <glyph glyph-name="four.onumtab" 
d="M257 -187l40 187h-314l20 95l403 432h138l-88 -411h100l-25 -116h-99l-40 -187h-135zM121 116h201l59 278z" />
    <glyph glyph-name="five.onumtab" 
d="M570 527l-44 -124h-244l-45 -131h11q11 1 18 1q101 0 157.5 -50.5t56.5 -137.5q0 -123 -107 -201t-286 -78q-58 0 -106 9l47 133q35 -7 81 -7q115 0 174.5 38t59.5 101q0 39 -35.5 63t-105.5 24q-68 0 -124 -13l125 373h367z" />
    <glyph glyph-name="six.onumtab" 
d="M592 637q-137 -3 -232 -61.5t-144 -153.5q66 44 146 44q97 0 151.5 -55.5t54.5 -150.5q0 -113 -82.5 -193.5t-200.5 -80.5q-116 0 -176 67t-60 173q0 108 41 205t115.5 172t188 121.5t249.5 50.5zM311 368q-77 0 -133 -59q-6 -37 -6 -74q0 -56 30.5 -90t84.5 -34
q57 0 96 40.5t39 101.5q0 53 -29.5 84t-81.5 31z" />
    <glyph glyph-name="seven.onumtab" 
d="M135 527h477q-237 -406 -374 -714h-168q152 296 343 577l-346 -10z" />
    <glyph glyph-name="eight.onumtab" 
d="M557 215q0 -94 -84 -161t-199 -67q-106 0 -167.5 51.5t-61.5 137.5q0 153 202 217q-95 62 -95 162q0 84 76.5 150.5t185.5 66.5q101 0 155.5 -52.5t54.5 -129.5q0 -131 -173 -194q106 -70 106 -181zM418 225q0 70 -88 113q-73 -23 -111 -59.5t-38 -81.5q0 -37 27.5 -62.5
t70.5 -25.5q60 0 99.5 33t39.5 83zM289 550q0 -64 78 -102q60 22 92.5 55.5t32.5 74.5q0 34 -24 55.5t-63 21.5q-50 0 -83 -30t-33 -75z" />
    <glyph glyph-name="nine.onumtab" 
d="M114 -220l-66 120q213 76 308 179q-27 -7 -60 -7q-110 0 -173.5 55.5t-63.5 151.5q0 103 83 182t195 79q118 0 180 -67t62 -177q0 -162 -110.5 -289t-354.5 -227zM341 162q44 0 80 15q21 54 21 114q0 57 -30.5 91t-82.5 34q-55 0 -93.5 -38t-38.5 -94q0 -54 37.5 -88
t106.5 -34z" />
    <glyph glyph-name="zero.prop" horiz-adv-x="709" 
d="M312 -16q-115 0 -176 78t-61 219q0 222 108 354.5t269 132.5q118 0 179 -72.5t61 -212.5q0 -221 -108.5 -360t-271.5 -139zM323 107q97 0 162.5 101.5t65.5 275.5q0 168 -110 168q-99 0 -161.5 -106.5t-62.5 -267.5q0 -82 27 -126.5t79 -44.5z" />
    <glyph glyph-name="one.prop" horiz-adv-x="453" 
d="M267 0h-144l134 627l-134 -16l55 141h249z" />
    <glyph glyph-name="two.prop" horiz-adv-x="602" 
d="M203 726q82 39 183 39q97 0 152.5 -53.5t55.5 -139.5q0 -64 -33.5 -122.5t-116.5 -136.5q-99 -94 -220 -187h314l-41 -126h-510l12 60q202 163 348 314q54 55 76.5 93t22.5 77t-25 62t-72 23q-103 0 -213 -67z" />
    <glyph glyph-name="three.prop" horiz-adv-x="577" 
d="M577 594q0 -134 -151 -211q91 -43 91 -142q0 -114 -86.5 -184t-234.5 -70q-96 0 -170 33l21 134q58 -35 149 -35q83 0 131 33.5t48 89.5q0 40 -32 63.5t-90 23.5q-69 0 -134 -13l61 135q33 -3 80 -3q81 0 127 32.5t46 89.5q0 32 -24.5 52t-68.5 20q-90 0 -165 -45l58 150
q57 18 128 18q103 0 159.5 -46t56.5 -125z" />
    <glyph glyph-name="four.prop" horiz-adv-x="693" 
d="M353 0l43 202h-371l26 122l438 428h158l-92 -431h100l-25 -119h-100l-43 -202h-134zM170 321h251l66 308z" />
    <glyph glyph-name="five.prop" horiz-adv-x="614" 
d="M650 752l-44 -124h-284l-48 -140q125 0 195 -58.5t70 -157.5q0 -144 -117.5 -231.5t-320.5 -87.5q-47 0 -92 12l38 128q35 -7 85 -7q129 0 199.5 47.5t70.5 129.5q0 51 -44.5 81.5t-134.5 30.5q-61 0 -117 -12l132 389h412zM268 471q1 1 1 3z" />
    <glyph glyph-name="six.prop" horiz-adv-x="644" 
d="M616 641q-139 -3 -236.5 -60t-148.5 -150q68 38 147 38q101 0 158.5 -56.5t57.5 -149.5q0 -117 -87 -197t-208 -80q-119 0 -180.5 66.5t-61.5 176.5q0 108 42 205.5t119 173t193.5 122t256.5 50.5zM343 369q-91 0 -156 -59q-6 -35 -6 -71q0 -58 33 -92.5t92 -34.5
q63 0 106.5 43t43.5 108q0 49 -30.5 77.5t-82.5 28.5z" />
    <glyph glyph-name="seven.prop" horiz-adv-x="558" 
d="M143 752h485q-237 -423 -376 -752h-182q194 375 354 615l-356 -11z" />
    <glyph glyph-name="eight.prop" horiz-adv-x="625" 
d="M561 218q0 -96 -85 -163.5t-201 -67.5q-108 0 -170 51t-62 136q0 153 205 219q-98 61 -98 160q0 85 77.5 152t187.5 67q102 0 157 -51.5t55 -127.5q0 -134 -175 -197q109 -71 109 -178zM422 227q0 69 -91 111q-75 -23 -113.5 -60.5t-38.5 -82.5q0 -37 28 -61.5t73 -24.5
q61 0 101.5 34t40.5 84zM287 548q0 -64 80 -100q128 47 128 132q0 33 -24 54t-65 21q-51 0 -85 -31t-34 -76z" />
    <glyph glyph-name="nine.prop" horiz-adv-x="642" 
d="M179 -28l-76 119q237 84 336 214q-44 -14 -91 -14q-110 0 -174.5 57.5t-64.5 155.5q0 106 84 186.5t200 80.5q119 0 182 -71t63 -188q0 -168 -108 -302t-351 -238zM394 381q54 0 97 18q19 57 19 112q0 61 -32.5 98t-88.5 37q-60 0 -102.5 -42t-42.5 -103q0 -53 39 -86.5
t111 -33.5z" />
    <glyph glyph-name="ampersand.salt" horiz-adv-x="780" 
d="M626 363l123 -48q-64 -110 -145 -185l90 -130h-157l-36 52q-110 -65 -229 -65q-109 0 -168.5 51.5t-59.5 140.5q0 77 45 133.5t158 113.5q-45 81 -45 148q0 82 67.5 144t160.5 62q87 0 133.5 -45t46.5 -114q0 -65 -41 -114t-152 -106l117 -170q55 57 92 132zM293 111
q68 0 140 40l-131 192q-65 -36 -91 -69t-26 -75q0 -41 28 -64.5t80 -23.5zM330 580q0 -46 33 -100q70 34 98 64t28 73q0 25 -17 42.5t-45 17.5q-43 0 -70 -27t-27 -70z" />
    <glyph glyph-name="comma.salt" horiz-adv-x="267" 
d="M206 128l-172 -250h-102l139 250h135z" />
    <glyph glyph-name="semicolon.salt" horiz-adv-x="262" 
d="M176 492q33 0 51.5 -19t18.5 -52q0 -35 -25 -60t-62 -25q-33 0 -51.5 19t-18.5 50q0 37 25.5 62t61.5 25zM176 128l-172 -250h-102l139 250h135z" />
    <glyph glyph-name="quoteleft.salt" horiz-adv-x="252" 
d="M85 516l172 250h102l-139 -250h-135z" />
    <glyph glyph-name="quoteright.salt" horiz-adv-x="252" 
d="M357 766l-172 -250h-102l139 250h135z" />
    <glyph glyph-name="quotesinglbase.salt" horiz-adv-x="252" 
d="M206 128l-172 -250h-102l139 250h135z" />
    <glyph glyph-name="quotedblleft.salt" horiz-adv-x="411" 
d="M263 516l172 250h102l-139 -250h-135zM76 516l172 250h102l-139 -250h-135z" />
    <glyph glyph-name="quotedblright.salt" horiz-adv-x="411" 
d="M538 766l-172 -250h-102l139 250h135zM351 766l-172 -250h-102l139 250h135z" />
    <glyph glyph-name="quotedblbase.salt" horiz-adv-x="444" 
d="M393 128l-172 -250h-102l139 250h135zM206 128l-172 -250h-102l139 250h135z" />
    <glyph glyph-name="A.salt" horiz-adv-x="789" 
d="M585 0l-44 178h-303l-116 -178h-172l559 795h4l222 -795h-150zM462 530l-160 -243h219z" />
    <glyph glyph-name="G.salt" horiz-adv-x="769" 
d="M751 422l-77 -361q-119 -74 -278 -74q-151 0 -239 91t-88 244q0 118 58.5 223.5t168.5 172.5t246 67q146 0 243 -65l-47 -156h-3q-66 88 -202 88q-137 0 -225 -90.5t-88 -225.5q0 -102 51.5 -161t142.5 -59q76 0 129 33l28 138h-153l29 135h304z" />
    <glyph glyph-name="J.salt" horiz-adv-x="475" 
d="M503 772l-108 -505q-27 -132 -108.5 -202.5t-196.5 -70.5q-68 0 -117 26l21 144q23 -23 44.5 -31.5t53.5 -8.5q61 0 103 38t58 114l106 496h144z" />
    <glyph glyph-name="M.salt" horiz-adv-x="1001" 
d="M926 799l-19 -799h-141l16 398l-325 -427h-4l-153 444l-158 -415h-151l322 797h4l183 -553l422 555h4z" />
    <glyph glyph-name="N.salt" horiz-adv-x="869" 
d="M39 0l169 795h4l430 -512l104 489h145l-170 -799h-4l-430 513l-103 -486h-145z" />
    <glyph glyph-name="V.salt" horiz-adv-x="742" 
d="M114 772h159l94 -477l309 477h176l-546 -802h-4z" />
    <glyph glyph-name="W.salt" horiz-adv-x="1118" 
d="M114 772h149l82 -462l326 491h4l94 -488l287 459h172l-516 -805h-4l-39 186l-64 301l-333 -487h-4z" />
    <glyph glyph-name="a.sc.salt" horiz-adv-x="590" 
d="M397 0l-26 110h-189l-74 -110h-159l418 558h4l166 -558h-140zM328 339l-91 -134h122z" />
    <glyph glyph-name="g.sc.salt" horiz-adv-x="586" 
d="M373 424q-81 0 -139 -56t-58 -136q0 -61 34 -96.5t92 -35.5q43 0 74 22l16 79h-91l21 96h228l-52 -244q-94 -66 -219 -66q-111 0 -177 62.5t-66 171.5q0 134 96 226.5t244 92.5q123 0 193 -47l-51 -125h-3q-45 56 -142 56z" />
    <glyph glyph-name="j.sc.salt" horiz-adv-x="412" 
d="M401 527l-65 -303q-23 -108 -90 -169.5t-165 -61.5q-63 0 -109 23l20 139q25 -35 78 -35q47 0 81.5 31.5t47.5 88.5l61 287h141z" />
    <glyph glyph-name="m.sc.salt" horiz-adv-x="733" 
d="M667 556l-22 -556h-133l12 214l-204 -242h-4l-108 254l-84 -226h-140l216 555h4l154 -363l305 364h4z" />
    <glyph glyph-name="n.sc.salt" horiz-adv-x="685" 
d="M541 -29l-311 313l-60 -284h-141l117 548h4l310 -314l63 293h141l-119 -556h-4z" />
    <glyph glyph-name="v.sc.salt" horiz-adv-x="544" 
d="M60 527h139l62 -284l186 284h157l-392 -557h-4z" />
    <glyph glyph-name="w.sc.salt" horiz-adv-x="801" 
d="M494 -32l-86 313l-233 -313h-4l-111 559h132l50 -277l215 298h4l76 -300l175 279h149l-363 -559h-4z" />
    <glyph glyph-name="a.salt" horiz-adv-x="618" 
d="M504 15l-143 -34q-2 12 -2 24t1 20q-58 -40 -130 -40q-95 0 -145.5 59.5t-50.5 155.5q0 135 91 223.5t223 88.5q82 0 132 -32l116 17l-80 -374q-12 -57 -12 -98v-10zM271 97q70 0 111 40l49 233q-25 30 -79 30q-78 0 -127.5 -55.5t-49.5 -139.5q0 -50 25 -79t71 -29z" />
    <glyph glyph-name="e.salt" horiz-adv-x="555" 
d="M504 230l-346 -9v-5q0 -58 34 -89t96 -31q105 0 191 70l-40 -135q-70 -48 -175 -48q-104 0 -166 57t-62 169q0 124 85.5 213t205.5 89q93 0 146 -49t53 -131q0 -53 -22 -101zM320 409q-52 0 -92.5 -32.5t-58.5 -86.5l231 6q5 13 5 31q0 38 -21.5 60t-63.5 22z" />
    <glyph glyph-name="g.salt" horiz-adv-x="619" 
d="M-5 -186l21 127q55 -67 169 -67q143 0 169 124l5 21q-52 -32 -122 -32q-95 0 -149 57.5t-54 155.5q0 134 93 223t230 89q76 0 129 -29l112 17l-108 -507q-22 -105 -103 -167.5t-203 -62.5q-126 0 -189 51zM281 99q63 0 102 36l52 243q-29 22 -75 22q-82 0 -133 -54
t-51 -138q0 -51 27.5 -80t77.5 -29z" />
    <glyph glyph-name="v.salt" horiz-adv-x="509" 
d="M53 494h136l46 -266l175 266h153l-381 -526h-4z" />
    <glyph glyph-name="w.salt" horiz-adv-x="797" 
d="M53 494h134l42 -263l215 291h4l79 -293l172 265h152l-365 -534h-4l-87 305l-230 -312h-4z" />
    <glyph glyph-name="ae.salt" horiz-adv-x="825" 
d="M775 232l-333 -9v-8q0 -57 33 -87.5t91 -30.5q101 0 183 69l-40 -134q-66 -47 -170 -47q-133 0 -185 89q-109 -87 -223 -87q-63 0 -96.5 31.5t-33.5 85.5q0 57 49.5 99.5t137.5 63.5q64 15 139 20l6 29q3 18 3 25q0 56 -72 56q-88 0 -155 -55l26 125q72 42 159 42
q112 0 146 -68q72 69 164 69t141.5 -50.5t49.5 -135.5q0 -50 -20 -92zM594 407q-47 0 -86 -33t-56 -87l218 6q5 15 5 34q0 80 -81 80zM293 129l20 96q-64 -7 -104 -22q-63 -22 -63 -74q0 -39 44 -39q58 0 103 39z" />
    <glyph glyph-name="oe.salt" horiz-adv-x="918" 
d="M331 512q119 0 172 -92q77 91 194 91q91 0 141.5 -51t50.5 -136q0 -47 -21 -92l-332 -9v-8q0 -57 32 -88t90 -31q104 0 184 69l-40 -134q-67 -48 -170 -48q-127 0 -176 91q-82 -91 -202 -91q-99 0 -158 61.5t-59 166.5q0 133 87 217t207 84zM260 94q67 0 108 56.5
t41 141.5q0 49 -22 79.5t-61 30.5q-62 0 -105.5 -54.5t-43.5 -141.5q0 -51 21 -81.5t62 -30.5zM764 293q4 22 4 37q0 79 -79 79q-47 0 -86 -33.5t-56 -88.5z" />
    <glyph glyph-name="Agrave.salt" horiz-adv-x="789" 
d="M585 0l-44 178h-303l-116 -178h-172l559 795h4l222 -795h-150zM462 530l-160 -243h219zM507 819l-116 149h134l51 -149h-69z" />
    <glyph glyph-name="Aacute.salt" horiz-adv-x="789" 
d="M585 0l-44 178h-303l-116 -178h-172l559 795h4l222 -795h-150zM462 530l-160 -243h219zM699 968l-171 -149h-77l96 149h152z" />
    <glyph glyph-name="Acircumflex.salt" horiz-adv-x="789" 
d="M585 0l-44 178h-303l-116 -178h-172l559 795h4l222 -795h-150zM462 530l-160 -243h219zM609 819l-73 80l-104 -80h-75l128 149h120l65 -149h-61z" />
    <glyph glyph-name="Atilde.salt" horiz-adv-x="789" 
d="M585 0l-44 178h-303l-116 -178h-172l559 795h4l222 -795h-150zM462 530l-160 -243h219zM460 861q-23 0 -42 -16t-25 -38l-49 11q20 64 55 101.5t74 37.5q25 0 67.5 -17t60.5 -17q23 0 41 15.5t26 38.5l49 -11q-21 -64 -56 -101.5t-73 -37.5q-26 0 -68.5 17t-59.5 17z" />
    <glyph glyph-name="Adieresis.salt" horiz-adv-x="789" 
d="M585 0l-44 178h-303l-116 -178h-172l559 795h4l222 -795h-150zM462 530l-160 -243h219zM423 969q31 0 48.5 -17.5t17.5 -47.5q0 -31 -23 -53t-55 -22q-31 0 -49 17t-18 46q0 33 23 55t56 22zM651 969q30 0 47.5 -18t17.5 -47q0 -31 -22.5 -53t-55.5 -22q-31 0 -49 17
t-18 46q0 33 23 55t57 22z" />
    <glyph glyph-name="Amacron.salt" horiz-adv-x="789" 
d="M585 0l-44 178h-303l-116 -178h-172l559 795h4l222 -795h-150zM462 530l-160 -243h219zM696 935l-19 -88h-316l19 88h316z" />
    <glyph glyph-name="Abreve.salt" horiz-adv-x="789" 
d="M585 0l-44 178h-303l-116 -178h-172l559 795h4l222 -795h-150zM462 530l-160 -243h219zM525 900q77 0 98 75h60q-13 -66 -56.5 -111t-113.5 -45q-109 0 -109 114q0 17 5 42h50q-1 -6 -1 -18q0 -57 67 -57z" />
    <glyph glyph-name="Aring.salt" horiz-adv-x="789" 
d="M585 0l-44 178h-303l-116 -178h-172l559 795h4l222 -795h-150zM462 530l-160 -243h219zM426 901q0 44 37 79t82 35q41 0 67 -28t26 -68q0 -44 -37 -79t-82 -35q-41 0 -67 28t-26 68zM473 901q0 -21 13 -35t33 -14q27 0 49.5 20.5t22.5 46.5q0 20 -13.5 34.5t-33.5 14.5
q-27 0 -49 -20.5t-22 -46.5z" />
    <glyph glyph-name="Aogonek.salt" horiz-adv-x="789" 
d="M585 0l-44 178h-303l-116 -178h-172l559 795h4l222 -795q-83 -17 -122 -49.5t-39 -69.5q0 -13 9 -21.5t24 -8.5q44 0 80 33h2l-27 -97q-38 -24 -92 -24t-84 24t-30 67q0 38 30 71.5t99 74.5zM462 530l-160 -243h219z" />
    <glyph glyph-name="Gcircumflex.salt" horiz-adv-x="769" 
d="M751 422l-77 -361q-119 -74 -278 -74q-151 0 -239 91t-88 244q0 118 58.5 223.5t168.5 172.5t246 67q146 0 243 -65l-47 -156h-3q-66 88 -202 88q-137 0 -225 -90.5t-88 -225.5q0 -102 51.5 -161t142.5 -59q76 0 129 33l28 138h-153l29 135h304zM644 815l-73 80l-104 -80
h-75l128 149h120l65 -149h-61z" />
    <glyph glyph-name="Gbreve.salt" horiz-adv-x="769" 
d="M751 422l-77 -361q-119 -74 -278 -74q-151 0 -239 91t-88 244q0 118 58.5 223.5t168.5 172.5t246 67q146 0 243 -65l-47 -156h-3q-66 88 -202 88q-137 0 -225 -90.5t-88 -225.5q0 -102 51.5 -161t142.5 -59q76 0 129 33l28 138h-153l29 135h304zM559 896q77 0 98 75h60
q-13 -66 -56.5 -111t-113.5 -45q-109 0 -109 114q0 17 5 42h50q-1 -6 -1 -18q0 -57 67 -57z" />
    <glyph glyph-name="Gdotaccent.salt" horiz-adv-x="769" 
d="M751 422l-77 -361q-119 -74 -278 -74q-151 0 -239 91t-88 244q0 118 58.5 223.5t168.5 172.5t246 67q146 0 243 -65l-47 -156h-3q-66 88 -202 88q-137 0 -225 -90.5t-88 -225.5q0 -102 51.5 -161t142.5 -59q76 0 129 33l28 138h-153l29 135h304zM570 966q31 0 49.5 -18
t18.5 -48q0 -35 -23.5 -58t-58.5 -23q-32 0 -50 18t-18 48q0 35 23.5 58t58.5 23z" />
    <glyph glyph-name="Gcommaaccent.salt" horiz-adv-x="769" 
d="M751 422l-77 -361q-119 -74 -278 -74q-151 0 -239 91t-88 244q0 118 58.5 223.5t168.5 172.5t246 67q146 0 243 -65l-47 -156h-3q-66 88 -202 88q-137 0 -225 -90.5t-88 -225.5q0 -102 51.5 -161t142.5 -59q76 0 129 33l28 138h-153l29 135h304zM419 -54q5 -17 5 -39
q0 -37 -22.5 -67.5t-90.5 -76.5h-75q46 44 63.5 70.5t17.5 56.5q0 18 -7 35z" />
    <glyph glyph-name="IJ.salt" horiz-adv-x="777" 
d="M183 0h-144l164 772h144zM805 772l-108 -505q-27 -132 -108.5 -202.5t-196.5 -70.5q-68 0 -117 26l21 144q23 -23 44.5 -31.5t53.5 -8.5q61 0 103 38t58 114l106 496h144z" />
    <glyph glyph-name="Jcircumflex.salt" horiz-adv-x="475" 
d="M503 772l-108 -505q-27 -132 -108.5 -202.5t-196.5 -70.5q-68 0 -117 26l21 144q23 -23 44.5 -31.5t53.5 -8.5q61 0 103 38t58 114l106 496h144zM535 815l-73 80l-104 -80h-75l128 149h120l65 -149h-61z" />
    <glyph glyph-name="Nacute.salt" horiz-adv-x="869" 
d="M39 0l169 795h4l430 -512l104 489h145l-170 -799h-4l-430 513l-103 -486h-145zM720 964l-171 -149h-77l96 149h152z" />
    <glyph glyph-name="Ncaron.salt" horiz-adv-x="869" 
d="M39 0l169 795h4l430 -512l104 489h145l-170 -799h-4l-430 513l-103 -486h-145zM396 964h61l72 -80l105 80h75l-128 -149h-120z" />
    <glyph glyph-name="Ntilde.salt" horiz-adv-x="869" 
d="M39 0l169 795h4l430 -512l104 489h145l-170 -799h-4l-430 513l-103 -486h-145zM480 857q-23 0 -42 -16t-25 -38l-49 11q20 64 55 101.5t74 37.5q25 0 67.5 -17t60.5 -17q23 0 41 15.5t26 38.5l49 -11q-21 -64 -56 -101.5t-73 -37.5q-26 0 -68.5 17t-59.5 17z" />
    <glyph glyph-name="Ncommaaccent.salt" horiz-adv-x="869" 
d="M39 0l169 795h4l430 -512l104 489h145l-170 -799h-4l-430 513l-103 -486h-145zM433 -54q5 -17 5 -39q0 -37 -22.5 -67.5t-90.5 -76.5h-75q46 44 63.5 70.5t17.5 56.5q0 18 -7 35z" />
    <glyph glyph-name="Eng.salt" horiz-adv-x="869" 
d="M39 0l169 795h4l430 -512l104 489h145l-172 -806q-20 -95 -82 -149t-151 -54q-58 0 -99 22l12 136q24 -31 77 -31q38 0 66 26t38 74l25 116l-318 380l-103 -486h-145z" />
    <glyph glyph-name="Wgrave.salt" horiz-adv-x="1118" 
d="M114 772h149l82 -462l326 491h4l94 -488l287 459h172l-516 -805h-4l-39 186l-64 301l-333 -487h-4zM667 819l-116 149h134l51 -149h-69z" />
    <glyph glyph-name="Wacute.salt" horiz-adv-x="1118" 
d="M114 772h149l82 -462l326 491h4l94 -488l287 459h172l-516 -805h-4l-39 186l-64 301l-333 -487h-4zM859 968l-171 -149h-77l96 149h152z" />
    <glyph glyph-name="Wcircumflex.salt" horiz-adv-x="1118" 
d="M114 772h149l82 -462l326 491h4l94 -488l287 459h172l-516 -805h-4l-39 186l-64 301l-333 -487h-4zM770 819l-73 80l-104 -80h-75l128 149h120l65 -149h-61z" />
    <glyph glyph-name="Wdieresis.salt" horiz-adv-x="1118" 
d="M114 772h149l82 -462l326 491h4l94 -488l287 459h172l-516 -805h-4l-39 186l-64 301l-333 -487h-4zM583 969q31 0 48.5 -17.5t17.5 -47.5q0 -31 -23 -53t-55 -22q-31 0 -49 17t-18 46q0 33 23 55t56 22zM811 969q30 0 47.5 -18t17.5 -47q0 -31 -22.5 -53t-55.5 -22
q-31 0 -49 17t-18 46q0 33 23 55t57 22z" />
    <glyph glyph-name="agrave.sc.salt" horiz-adv-x="590" 
d="M397 0l-26 110h-189l-74 -110h-159l418 558h4l166 -558h-140zM328 339l-91 -134h122zM384 624l-117 179h134l42 -179h-59z" />
    <glyph glyph-name="aacute.sc.salt" horiz-adv-x="590" 
d="M397 0l-26 110h-189l-74 -110h-159l418 558h4l166 -558h-140zM328 339l-91 -134h122zM576 803l-191 -179h-61l101 179h151z" />
    <glyph glyph-name="acircumflex.sc.salt" horiz-adv-x="590" 
d="M397 0l-26 110h-189l-74 -110h-159l418 558h4l166 -558h-140zM328 339l-91 -134h122zM473 624l-64 97l-104 -97h-71l143 179h89l66 -179h-59z" />
    <glyph glyph-name="atilde.sc.salt" horiz-adv-x="590" 
d="M397 0l-26 110h-189l-74 -110h-159l418 558h4l166 -558h-140zM328 339l-91 -134h122zM338 683q-21 0 -38 -14t-23 -36l-46 11q16 65 49.5 103.5t73.5 38.5q25 0 65.5 -23t57.5 -23q21 0 38 14t24 36l46 -11q-16 -65 -49.5 -103.5t-73.5 -38.5q-25 0 -66 23t-58 23z" />
    <glyph glyph-name="adieresis.sc.salt" horiz-adv-x="590" 
d="M397 0l-26 110h-189l-74 -110h-159l418 558h4l166 -558h-140zM328 339l-91 -134h122zM302 776q29 0 46.5 -17t17.5 -44q0 -31 -21.5 -52t-53.5 -21q-30 0 -46.5 16.5t-16.5 44.5q0 31 21.5 52t52.5 21zM512 776q29 0 46 -17t17 -44q0 -31 -21.5 -52t-52.5 -21
q-30 0 -47 16.5t-17 44.5q0 31 21.5 52t53.5 21z" />
    <glyph glyph-name="amacron.sc.salt" horiz-adv-x="590" 
d="M397 0l-26 110h-189l-74 -110h-159l418 558h4l166 -558h-140zM328 339l-91 -134h122zM554 757l-21 -96h-285l21 96h285z" />
    <glyph glyph-name="abreve.sc.salt" horiz-adv-x="590" 
d="M397 0l-26 110h-189l-74 -110h-159l418 558h4l166 -558h-140zM328 339l-91 -134h122zM399 715q82 0 100 86h59q-36 -175 -174 -175q-108 0 -108 114q0 26 8 61h51q-3 -15 -3 -28q0 -58 67 -58z" />
    <glyph glyph-name="aring.sc.salt" horiz-adv-x="590" 
d="M397 0l-26 110h-189l-74 -110h-159l418 558h4l166 -558h-140zM328 339l-91 -134h122zM294 705q0 46 38 82t83 36q42 0 69.5 -29t27.5 -70q0 -46 -37.5 -82t-83.5 -36q-42 0 -69.5 29t-27.5 70zM347 705q0 -19 12.5 -32.5t31.5 -13.5q27 0 47.5 19.5t20.5 45.5
q0 19 -12.5 32t-31.5 13q-27 0 -47.5 -19t-20.5 -45z" />
    <glyph glyph-name="aogonek.sc.salt" horiz-adv-x="590" 
d="M397 0l-26 110h-189l-74 -110h-159l418 558h4l166 -558q-150 -43 -150 -119q0 -13 9 -21.5t25 -8.5q45 0 79 33h2l-28 -97q-37 -24 -91 -24t-84 24t-30 67q0 38 29.5 72t98.5 74zM328 339l-91 -134h122z" />
    <glyph glyph-name="gcircumflex.sc.salt" horiz-adv-x="586" 
d="M373 424q-81 0 -139 -56t-58 -136q0 -61 34 -96.5t92 -35.5q43 0 74 22l16 79h-91l21 96h228l-52 -244q-94 -66 -219 -66q-111 0 -177 62.5t-66 171.5q0 134 96 226.5t244 92.5q123 0 193 -47l-51 -125h-3q-45 56 -142 56zM462 624l-64 97l-104 -97h-71l143 179h89
l66 -179h-59z" />
    <glyph glyph-name="gbreve.sc.salt" horiz-adv-x="586" 
d="M373 424q-81 0 -139 -56t-58 -136q0 -61 34 -96.5t92 -35.5q43 0 74 22l16 79h-91l21 96h228l-52 -244q-94 -66 -219 -66q-111 0 -177 62.5t-66 171.5q0 134 96 226.5t244 92.5q123 0 193 -47l-51 -125h-3q-45 56 -142 56zM388 715q82 0 100 86h59q-36 -175 -174 -175
q-108 0 -108 114q0 26 8 61h51q-3 -15 -3 -28q0 -58 67 -58z" />
    <glyph glyph-name="gdotaccent.sc.salt" horiz-adv-x="586" 
d="M373 424q-81 0 -139 -56t-58 -136q0 -61 34 -96.5t92 -35.5q43 0 74 22l16 79h-91l21 96h228l-52 -244q-94 -66 -219 -66q-111 0 -177 62.5t-66 171.5q0 134 96 226.5t244 92.5q123 0 193 -47l-51 -125h-3q-45 56 -142 56zM399 793q33 0 52.5 -19.5t19.5 -51.5
q0 -35 -25.5 -60t-62.5 -25q-34 0 -53 19t-19 50q0 37 25.5 62t62.5 25z" />
    <glyph glyph-name="gcommaaccent.sc.salt" horiz-adv-x="586" 
d="M373 424q-81 0 -139 -56t-58 -136q0 -61 34 -96.5t92 -35.5q43 0 74 22l16 79h-91l21 96h228l-52 -244q-94 -66 -219 -66q-111 0 -177 62.5t-66 171.5q0 134 96 226.5t244 92.5q123 0 193 -47l-51 -125h-3q-45 56 -142 56zM278 -54q5 -17 5 -39q0 -37 -22.5 -67.5
t-90.5 -76.5h-75q46 44 63.5 70.5t17.5 56.5q0 18 -7 35z" />
    <glyph glyph-name="ij.sc.salt" horiz-adv-x="686" 
d="M170 0h-141l112 527h141zM674 527l-65 -303q-23 -108 -90 -169.5t-165 -61.5q-63 0 -109 23l20 139q25 -35 78 -35q47 0 81.5 31.5t47.5 88.5l61 287h141z" />
    <glyph glyph-name="jcircumflex.sc.salt" horiz-adv-x="412" 
d="M401 527l-65 -303q-23 -108 -90 -169.5t-165 -61.5q-63 0 -109 23l20 139q25 -35 78 -35q47 0 81.5 31.5t47.5 88.5l61 287h141zM441 624l-64 97l-104 -97h-71l143 179h89l66 -179h-59z" />
    <glyph glyph-name="nacute.sc.salt" horiz-adv-x="685" 
d="M541 -29l-311 313l-60 -284h-141l117 548h4l310 -314l63 293h141l-119 -556h-4zM599 803l-191 -179h-61l101 179h151z" />
    </font>
</defs>
</svg>
